<?xml version="1.0" standalone="no"?>
<!DOCTYPE svg PUBLIC "-//W3C//DTD SVG 1.1//EN" "http://www.w3.org/Graphics/SVG/1.1/DTD/svg11.dtd" >
<!--
2013-9-30: Created.
-->
<svg>
<metadata>
Created by iconfont
</metadata>
<defs>

<font id="iconfont" horiz-adv-x="1024" >
  <font-face
    font-family="iconfont"
    font-weight="500"
    font-stretch="normal"
    units-per-em="1024"
    ascent="896"
    descent="-128"
  />
    <missing-glyph />
    
    <glyph glyph-name="communityfill" unicode="&#59200;" d="M704 163.2c51.2 0 96 41.6 96 96v412.8c0 51.2-41.6 96-96 96h-547.2c-51.2 0-96-41.6-96-96v-412.8c0-51.2 41.6-96 96-96h35.2v-160c0-12.8 9.6-25.6 22.4-32h9.6c9.6 0 19.2 3.2 25.6 12.8l131.2 179.2h323.2zM864 643.2c-19.2 0-32-12.8-32-32s16-32 32-32 32-12.8 32-32v-348.8c0-19.2-16-25.6-32-25.6h-32c-19.2 0-32-12.8-32-32v-3.2c0-3.2-3.2-6.4-3.2-9.6v-60.8l-73.6 57.6c-3.2 3.2-9.6 3.2-16 3.2h-163.2c-19.2 0-32-12.8-32-32s12.8-32 32-32h153.6l115.2-89.6c6.4-3.2 12.8-6.4 19.2-6.4 3.2 0 9.6 0 12.8 3.2 9.6 6.4 19.2 16 19.2 28.8v108.8c54.4 0 96 38.4 96 89.6v348.8c0 51.2-44.8 96-96 96z"  horiz-adv-x="1024" />

    
    <glyph glyph-name="community" unicode="&#59201;" d="M704 163.2c51.2 0 96 41.6 96 96v412.8c0 51.2-41.6 96-96 96h-547.2c-51.2 0-96-41.6-96-96v-412.8c0-51.2 41.6-96 96-96h35.2v-160c0-12.8 9.6-25.6 22.4-32h9.6c9.6 0 19.2 3.2 25.6 12.8l131.2 179.2h323.2zM233.6 224c-3.2 3.2-9.6 3.2-12.8 3.2h-64c-16 0-32 12.8-32 32v412.8c0 16 12.8 32 32 32h547.2c16 0 32-12.8 32-32v-412.8c0-16-12.8-32-32-32h-348.8c-3.2-3.2-3.2-3.2-6.4-3.2s-3.2-3.2-6.4-3.2l-3.2-3.2s-3.2 0-3.2-3.2l-80-115.2v92.8c0 16-9.6 25.6-22.4 32zM864 643.2c-19.2 0-32-12.8-32-32s16-32 32-32 32-12.8 32-32v-348.8c0-19.2-16-25.6-32-25.6h-32c-19.2 0-32-12.8-32-32v-3.2c0-3.2-3.2-6.4-3.2-9.6v-60.8l-73.6 57.6c-3.2 3.2-9.6 3.2-16 3.2h-163.2c-19.2 0-32-12.8-32-32s12.8-32 32-32h153.6l115.2-89.6c6.4-3.2 12.8-6.4 19.2-6.4 3.2 0 9.6 0 12.8 3.2 9.6 6.4 19.2 16 19.2 28.8v108.8c54.4 0 96 38.4 96 89.6v348.8c0 51.2-44.8 96-96 96z"  horiz-adv-x="1024" />

    
    <glyph glyph-name="lingdang" unicode="&#983541;" d="M593.862 95.418l-169.191 0c-9.444 0-18.438-3.932-24.695-10.902-6.314-6.971-9.441-16.324-8.548-25.676 2.86-29.192 16.324-56.239 38.01-76.018 21.773-20.017 50.161-31.038 79.89-31.038 29.696 0 58.085 11.022 79.83 30.978 21.715 19.84 35.178 46.886 38.068 76.256 0.596 9.474-2.535 18.707-8.639 25.499-6.286 6.971-15.28 10.902-24.724 10.902zM555.02 20.174c-25.082-22.877-66.605-22.818-91.567-0.06-7.596 6.971-13.404 15.429-17.158 24.723l125.823 0c-3.723-9.353-9.474-17.751-17.097-24.663zM818.609 235.657l-62.763 82.928 0 49.268 0 105.715c0 70.745-24.216 136.337-68.183 184.682-26.003 28.626-57.31 49.715-93.055 62.822-3.306 18.944-12.721 36.252-26.926 49.208-32.051 29.251-85.104 29.251-117.096 0-14.357-13.046-23.77-30.383-26.987-49.268-35.714-13.046-67.022-34.135-93.026-62.791-43.938-48.434-68.184-114.026-68.184-184.653l0.179-154.686-62.315-82.451c-8.757-9.353-13.582-21.507-13.582-34.256l0-40.332c0-27.644 22.461-50.043 50.043-50.043l544.812 0c27.611 0 50.011 22.4 50.011 50.043l0 40.332c-0.001 12.75-4.796 24.904-12.927 33.483zM535.776 734.118c-7.387 0.656-19.302 1.906-26.569 1.906-7.298 0-19.689-1.252-27.048-1.906 12.42 20.254 44.384 16.502 53.617 0zM237.427 161.844l-0.12 40.035 62.315 82.45c8.698 9.354 13.524 21.447 13.524 34.256l0 154.983c0 58.056 19.54 111.554 54.986 150.635 17.574 19.362 38.307 34.375 61.541 44.682 48.852 21.745 110.302 21.745 159.096 0 23.321-10.425 43.994-25.438 61.539-44.682 35.449-39.081 54.959-92.579 54.959-150.635l0-154.984c0-12.867 4.826-25.081 12.956-33.54l62.791-82.868 0.509-39.795-544.096-0.536z"  horiz-adv-x="1024" />

    
    <glyph glyph-name="like" unicode="&#59036;" d="M332.8 646.4c38.4 0 83.2-19.2 108.8-44.8L467.2 576 512 531.2 556.8 576l25.6 25.6c32 32 70.4 44.8 108.8 44.8 19.2 0 38.4-6.4 57.6-12.8 44.8-25.6 70.4-57.6 76.8-108.8 6.4-44.8-6.4-89.6-38.4-121.6L512 121.6 236.8 403.2C204.8 435.2 185.6 480 192 524.8c6.4 44.8 38.4 83.2 76.8 108.8C288 640 313.6 646.4 332.8 646.4L332.8 646.4M332.8 710.4C300.8 710.4 268.8 704 243.2 691.2 108.8 620.8 89.6 454.4 185.6 358.4l281.6-281.6C480 64 499.2 57.6 512 57.6s32 6.4 38.4 19.2l281.6 281.6c96 96 76.8 262.4-57.6 332.8-25.6 12.8-57.6 19.2-89.6 19.2-57.6 0-115.2-25.6-153.6-64L512 620.8 486.4 646.4C448 684.8 390.4 710.4 332.8 710.4L332.8 710.4z"  horiz-adv-x="1024" />

    
    <glyph glyph-name="likefill" unicode="&#59037;" d="M780.8 691.2c-83.2 44.8-179.2 19.2-243.2-44.8L512 620.8 486.4 646.4c-64 64-166.4 83.2-243.2 44.8C108.8 620.8 89.6 454.4 185.6 358.4l32-32 153.6-153.6 102.4-102.4c25.6-25.6 57.6-25.6 83.2 0l102.4 102.4 153.6 153.6 32 32C934.4 454.4 915.2 620.8 780.8 691.2z"  horiz-adv-x="1024" />

    
    <glyph glyph-name="plane" unicode="&#59057;" d="M704 32c-6.4 0-12.8 0-19.2 6.4l-153.6 102.4L454.4 64c-6.4-6.4-25.6-12.8-32-6.4-12.8 6.4-19.2 19.2-19.2 32l0 140.8c0 6.4 0 12.8 6.4 19.2L652.8 512c12.8 12.8 32 12.8 44.8 0 12.8-12.8 12.8-32 0-44.8l-236.8-256 0-51.2 44.8 38.4c12.8 12.8 25.6 12.8 38.4 6.4l140.8-89.6 108.8 531.2L256 384l121.6-76.8C390.4 300.8 396.8 275.2 384 262.4c-6.4-12.8-32-19.2-44.8-12.8L172.8 358.4C166.4 364.8 160 371.2 160 384c0 12.8 6.4 19.2 19.2 25.6l640 320c12.8 6.4 25.6 6.4 32 0 12.8-6.4 12.8-19.2 12.8-32l-128-640c0-12.8-6.4-19.2-19.2-25.6C710.4 32 710.4 32 704 32z"  horiz-adv-x="1024" />

    
    <glyph glyph-name="planefill" unicode="&#59058;" d="M851.2 729.6c-12.8 6.4-25.6 6.4-32 0l-640-320C166.4 409.6 160 396.8 160 384s6.4-25.6 12.8-25.6l153.6-96c12.8-6.4 25.6-6.4 38.4 6.4L704 576l12.8-6.4-307.2-326.4c-6.4-6.4-6.4-12.8-6.4-19.2l0-140.8c0-12.8 6.4-25.6 19.2-32 12.8-6.4 25.6 0 32 6.4l76.8 76.8 153.6-102.4c6.4-6.4 12.8-6.4 19.2-6.4 6.4 0 6.4 0 12.8 0 12.8 6.4 19.2 12.8 19.2 25.6l128 640C864 710.4 864 723.2 851.2 729.6z"  horiz-adv-x="1024" />

    
    <glyph glyph-name="huiyuan" unicode="&#58909;" d="M940.032-112.64l-855.04 0c-54.272 0-84.992 32.768-84.992 91.136 0 111.616 99.328 273.408 278.528 273.408 11.264 0 19.456-9.216 19.456-19.456s-9.216-19.456-19.456-19.456c-153.6 0-238.592-138.24-238.592-234.496 0-46.08 24.576-51.2 45.056-51.2l855.04 0c21.504 0 45.056 6.144 45.056 51.2 0 95.232-84.992 234.496-238.592 234.496-11.264 0-19.456 9.216-19.456 19.456s9.216 19.456 19.456 19.456C925.696 251.904 1025.024 90.112 1025.024-21.504 1025.024-78.848 994.304-112.64 940.032-112.64zM513.024 266.24c-153.6 0-279.552 137.216-279.552 307.2S359.424 880.64 513.024 880.64s279.552-137.216 279.552-307.2S666.624 266.24 513.024 266.24zM513.024 840.704c-132.096 0-239.616-119.808-239.616-267.264S380.928 306.176 513.024 306.176s239.616 119.808 239.616 267.264S645.12 840.704 513.024 840.704z"  horiz-adv-x="1026" />

    
    <glyph glyph-name="biaoxingfill" unicode="&#59186;" d="M957.258525 491.76684c-3.78431 11.352931-13.589115 19.609609-25.458088 21.501764l-270.406182 41.799429L540.640349 813.605241c-5.332437 11.180917-16.513355 18.40551-28.898371 18.40551 0 0 0 0 0 0-12.385016 0-23.565933-7.052579-28.898371-18.40551l-121.78599-258.021166L90.135394 514.816731c-11.868974-1.720141-21.673778-9.976818-25.630102-21.32975s-1.032085-23.909961 7.396607-32.510667L268.342012 258.859735 221.38216-25.995632c-2.064169-12.040988 3.096254-24.25399 13.073072-31.306568 9.976818-7.052579 23.221905-7.740635 33.88678-1.892155L510.193852 73.772552l241.335797-133.826978c4.816395-2.580212 10.148833-3.956325 15.48127-3.956325 0.172014 0 0.516042 0 0.688056 0 17.717453 0 31.994625 14.277171 31.994625 31.994625 0 3.956325-0.688056 7.740635-2.064169 11.352931l-44.895683 278.662859 196.956157 201.256509C958.118596 467.856879 961.042836 480.413909 957.258525 491.76684z"  horiz-adv-x="1024" />

    
    <glyph glyph-name="biaoxing" unicode="&#59187;" d="M767.010919-63.838737c-5.332437 0-10.664875 1.376113-15.48127 3.956325l-241.335797 133.826978-241.851839-132.966907c-10.664875-5.84848-23.909961-5.160423-33.88678 1.892155-9.976818 7.052579-15.137242 19.26558-13.073072 31.306568L268.342012 258.859735 71.901898 460.976314c-8.256677 8.428691-11.180917 20.985721-7.396607 32.166639 3.612296 11.352931 13.245087 19.609609 24.942046 21.673778l154.984714 26.662187c17.545439 2.92424 34.058794-8.77272 36.983034-26.146145s-8.77272-33.88678-26.146145-36.983034l-95.123803-16.341341 165.30556-170.121955c7.052579-7.224593 10.320847-17.545439 8.600706-27.522258l-38.875189-235.659331 199.536368 109.745003c9.63279 5.332437 21.32975 5.332437 30.96254 0l199.19234-110.433059-38.015118 235.831346c-1.548127 9.976818 1.548127 20.297665 8.77272 27.522258l164.617504 168.2298L634.732068 494.347052c-10.492861 1.548127-19.609609 8.428691-24.081975 18.061482L511.397951 724.84596l-100.112212-211.74937c-7.568621-15.997312-26.662187-22.877877-42.659499-15.309256-15.997312 7.568621-22.877877 26.662187-15.309256 42.659499l129.182597 273.502436c5.332437 11.180917 16.513355 18.40551 28.898371 18.40551 0 0 0 0 0 0 12.385016 0 23.737947-7.224593 28.898371-18.40551l120.753906-258.537208 270.406182-41.799429c11.868974-1.892155 21.673778-10.148833 25.458088-21.501764 3.78431-11.352931 0.860071-23.909961-7.568621-32.510667l-196.956157-201.256509 45.927768-284.855367c1.892155-12.040988-3.268268-24.25399-13.245087-31.306568C779.911977-61.946582 773.547455-63.838737 767.010919-63.838737z"  horiz-adv-x="1024" />

    
    <glyph glyph-name="dianpufill" unicode="&#59189;" d="M952.786158 543.199059c0 0.516042-0.172014 0.860071-0.172014 1.376113-0.344028 1.892155-0.860071 3.612296-1.548127 5.332437L875.895851 736.714934c-12.901058 38.531161-48.852007 62.613136-93.919704 62.613136L255.440954 799.32807c-44.207626 0-78.610449-23.565933-90.995464-60.720981L83.770872 548.015454c-0.344028-1.204099-0.860071-2.752226-1.204099-4.472367-5.84848-18.061482-8.77272-36.466991-8.77272-55.044515 0-65.193348 35.778935-124.71023 93.231648-155.328742 23.565933-12.729044 51.432219-19.093566 82.738787-19.093566 0 0 0 0 0.172014 0 52.464304 0.172014 101.144297 23.221905 134.34302 62.613136 33.026709-39.219217 81.19066-62.097094 133.654964-62.441122 51.948261 0.344028 100.112212 23.393919 132.966907 62.613136 33.198723-39.563245 81.878717-62.441122 134.687049-62.441122 31.994625 0.172014 60.204939 6.880564 84.1149 19.953637 56.592642 30.96254 91.683521 90.135394 91.683521 154.640685C961.386864 507.764153 958.29061 526.341676 952.786158 543.199059zM766.322862 512.064505 254.408869 512.064505c-17.717453 0-31.994625 14.277171-31.994625 31.994625s14.277171 31.994625 31.994625 31.994625l512.086007 0c17.717453 0 31.994625-14.277171 31.994625-31.994625S784.040316 512.064505 766.322862 512.064505zM894.989417 256.107509c0 17.717453-14.277171 31.994625-31.994625 31.994625-3.268268 0-6.192508-0.860071-9.288762-1.892155l0 0c-23.737947-9.460776-54.012431-14.449185-76.890307-13.245087-50.400134 2.752226-88.931295 12.729044-125.914329 44.207626-36.466991-31.134554-83.082815-48.852007-132.622879-49.36805-50.22812 0.344028-97.187972 12.901058-133.826978 44.207626-36.983034-31.478582-84.1149-46.787838-134.34302-46.787838l-0.172014 0c-30.618512 0-47.991937 5.84848-75.858223 16.169326-0.688056 0.344028-1.548127 0.516042-2.408198 0.860071-1.376113 0.516042-2.408198 0.860071-3.78431 1.376113 0 0-4.644381 0.860071-7.052579 0.860071 0 0 0 0 0 0-17.717453 0-31.994625-14.449185-31.994625-31.994625l0.172014-171.498068c0-45.067697 36.81102-81.878717 82.050731-81.878717l602.221401 0.344028c45.067697 0.172014 81.878717 36.983034 81.878717 82.050731L894.989417 256.107509z"  horiz-adv-x="1024" />

    
    <glyph glyph-name="dianpu" unicode="&#59190;" d="M952.786158 543.199059c0 0.516042-0.172014 0.860071-0.172014 1.376113-0.344028 1.892155-0.860071 3.612296-1.548127 5.332437L875.895851 736.714934c-13.073072 38.703175-50.22812 62.441122-93.919704 62.613136L255.440954 799.32807c-44.207626 0-78.610449-23.565933-90.995464-60.720981L83.770872 548.015454c-0.344028-1.204099-0.860071-2.752226-1.204099-4.472367-5.84848-18.061482-8.77272-36.466991-8.77272-55.044515 0-65.193348 35.778935-124.71023 93.231648-155.328742 0 0 0 0 0 0s0 0 0 0l0 0c0 0 0 0 0 0 23.565933-12.55703 51.432219-18.921552 82.738787-18.921552 52.464304 0.172014 101.144297 23.221905 134.34302 62.78515 33.026709-39.219217 81.19066-62.097094 133.654964-62.441122 51.948261 0.344028 100.112212 23.393919 132.966907 62.613136 33.198723-39.563245 81.878717-62.441122 134.687049-62.441122 31.994625 0.172014 60.204939 6.880564 84.1149 19.953637 56.592642 30.96254 91.683521 90.135394 91.683521 154.640685C961.386864 507.764153 958.29061 526.341676 952.786158 543.199059zM839.084831 390.622543c-14.449185-7.912649-32.510667-12.040988-53.668402-12.040988-39.047203 0-74.48211 19.781623-95.295817 53.324374-1.548127 3.096254-3.956325 8.428691-8.600706 13.417101-5.332437 5.84848-14.793214 12.901058-30.618512 12.901058-12.729044 0-24.25399-5.160423-30.790526-13.245087-4.300353-4.816395-6.70855-9.63279-8.428691-13.245087-20.469679-33.198723-55.732572-53.15236-93.919704-53.324374-38.703175 0.172014-73.966068 20.125651-94.607761 53.496388-1.376113 2.92424-3.78431 7.912649-7.568621 12.040988-14.965228 17.889467-48.679993 17.029397-61.753066 1.376113-4.816395-5.332437-7.396607-10.664875-8.944734-14.277171-20.641693-33.198723-56.248614-52.980346-94.951789-53.15236-20.641693 0-38.359147 3.956325-52.636318 11.524945l0 0c0 0 0 0 0 0-36.639006 19.437594-59.344868 57.452713-59.344868 98.908114 0 12.213002 2.064169 24.598018 6.192508 36.639006 0.344028 0.860071 0.516042 1.892155 0.688056 2.752226l79.470519 187.839409c1.548127 4.816395 6.536536 19.437594 31.306568 19.437594l526.707206 0c10.148833-0.688056 27.694272-2.408198 33.88678-20.641693l74.310096-185.259197c0.344028-1.376113 0.688056-2.580212 1.032085-3.612296 4.128339-12.040988 6.192508-24.25399 6.192508-36.466991C897.397615 448.075256 875.03578 410.404166 839.084831 390.622543zM862.994793 288.102133c-17.717453 0-31.994625-14.277171-31.994625-31.994625l0-174.594322c0-9.976818-8.084663-18.061482-18.061482-18.061482l-602.049387-0.344028c-9.976818 0-18.061482 8.084663-18.061482 17.889467l-0.172014 171.498068c0 17.717453-14.449185 31.994625-31.994625 31.994625 0 0 0 0 0 0-17.717453 0-31.994625-14.449185-31.994625-31.994625l0.172014-171.498068c0-45.067697 36.81102-81.878717 82.050731-81.878717l602.221401 0.344028c45.067697 0.172014 81.878717 36.81102 81.878717 82.050731l0 174.594322C894.989417 273.652948 880.712246 288.102133 862.994793 288.102133zM768.043004 512.064505 255.956996 512.064505c-17.717453 0-31.994625 14.277171-31.994625 31.994625 0 17.717453 14.277171 31.994625 31.994625 31.994625l511.913993 0c17.717453 0 31.994625-14.277171 31.994625-31.994625C800.037628 526.341676 785.588443 512.064505 768.043004 512.064505z"  horiz-adv-x="1024" />

    
    <glyph glyph-name="gouwuchefill" unicode="&#59196;" d="M352.972955 64.139761c-35.434907 0-63.989249-28.554342-63.989249-63.989249 0-35.434907 28.554342-63.989249 63.989249-63.989249s63.989249 28.554342 63.989249 63.989249C416.962204 35.585419 388.407862 64.139761 352.972955 64.139761L352.972955 64.139761zM801.069713 64.139761c-35.434907 0-63.989249-28.554342-63.989249-63.989249 0-35.434907 28.554342-63.989249 63.989249-63.989249s63.989249 28.554342 63.989249 63.989249C865.058962 35.585419 836.332605 64.139761 801.069713 64.139761L801.069713 64.139761zM937.304888 707.472535C920.963548 726.050059 898.429699 736.026877 874.003696 736.026877L232.907106 736.026877l-2.236183 13.073072c-5.676466 46.615824-46.615824 82.910801-93.231648 82.910801L97.015958 832.010751c-17.717453 0-31.994625-14.277171-31.994625-31.994625s14.277171-31.994625 31.994625-31.994625l40.251302 0c13.933143 0 28.210314-12.729044 29.930455-28.210314l30.96254-178.550647 54.356459-382.043339c5.676466-46.615824 46.099782-83.082815 92.371577-83.082815l520.17067 0c17.717453 0 31.994625 14.277171 31.994625 31.994625s-14.277171 31.994625-31.994625 31.994625L344.716278 160.123635c-13.589115 0-27.006215 12.55703-28.898371 27.522258l-5.332437 37.327062 507.61364 31.306568c46.099782 0 86.695112 36.466991 92.027549 81.362674L960.870821 625.937846C964.483118 656.728372 956.054426 686.486813 937.304888 707.472535z"  horiz-adv-x="1024" />

    
    <glyph glyph-name="gouwuche" unicode="&#59197;" d="M352.456912 63.967747c-35.434907 0-63.989249-28.554342-63.989249-63.989249 0-35.434907 28.554342-63.989249 63.989249-63.989249s63.989249 28.554342 63.989249 63.989249C416.446162 35.413405 387.891819 63.967747 352.456912 63.967747L352.456912 63.967747zM800.55367 63.967747c-35.434907 0-63.989249-28.554342-63.989249-63.989249 0-35.434907 28.554342-63.989249 63.989249-63.989249s63.989249 28.554342 63.989249 63.989249C864.54292 35.413405 835.816563 63.967747 800.55367 63.967747L800.55367 63.967747zM864.026877 95.962372 344.200235 95.962372c-46.099782 0-86.695112 36.466991-92.199563 83.082815l-54.356459 382.043339L166.853687 739.639174c-1.892155 15.653284-16.169326 28.382328-29.930455 28.382328L95.983874 768.021502c-17.717453 0-31.994625 14.277171-31.994625 31.994625s14.277171 31.994625 31.994625 31.994625l40.767344 0c46.615824 0 87.727196-36.466991 93.403662-83.082815l30.790526-177.86259L315.473879 187.301865c1.720141-14.793214 15.309256-27.350244 28.726356-27.350244l519.826642 0c17.717453 0 31.994625-14.277171 31.994625-31.994625S881.744331 95.962372 864.026877 95.962372zM384.279523 223.94087c-16.685369 0-30.618512 12.729044-31.82261 29.586427-1.376113 17.545439 11.868974 33.026709 29.586427 34.230808l434.163615 31.994625c15.997312 0.172014 29.414413 12.55703 31.134554 26.834201l50.400134 288.295649c1.204099 10.664875-1.720141 22.533848-8.084663 29.758441-4.128339 4.644381-9.288762 7.052579-15.309256 7.052579L319.946246 671.6936c-17.717453 0-31.994625 14.277171-31.994625 31.994625S302.400806 736.026877 319.946246 736.026877l554.05745 0c24.426004 0 46.959852-10.148833 63.301193-28.554342 18.749538-21.157736 27.178229-50.744163 23.565933-81.706703l-50.400134-288.467663c-5.504452-44.895683-45.927768-81.362674-92.027549-81.362674l-431.755417-31.82261C385.82765 224.112884 384.967579 223.94087 384.279523 223.94087z"  horiz-adv-x="1024" />

    
    <glyph glyph-name="kefufill" unicode="&#59202;" d="M608.929951 224.284898c-34.230808 0-60.892995 2.580212-68.461616 3.440282-17.545439 2.064169-30.274483 17.717453-28.210314 35.262893 1.892155 17.545439 17.545439 30.102469 35.262893 28.210314 79.642533-8.77272 201.772552-1.204099 223.102301 43.175542 7.568621 15.825298 26.662187 22.705863 42.659499 14.965228 15.997312-7.568621 22.705863-26.834201 14.965228-42.659499C794.361162 236.669914 683.412061 224.284898 608.929951 224.284898zM896.021502 256.107509c-17.717453 0-31.994625 14.277171-31.994625 31.994625l0 110.261045-42.831514 15.309256c-12.729044 4.472367-21.32975 16.685369-21.32975 30.102469 0 158.769024-129.182597 287.951621-287.951621 287.951621-158.769024 0-287.951621-129.182597-287.951621-287.951621 0-10.320847-4.988409-19.953637-13.417101-25.974131l-18.577524-13.245087 0-116.281539c0-17.717453-14.277171-31.994625-31.994625-31.994625s-31.994625 14.277171-31.994625 31.994625l0 132.794893c0 10.320847 4.988409 19.953637 13.417101 25.974131l18.921552 13.589115c8.77272 186.291282 163.069377 335.255501 351.596842 335.255501C698.377289 795.715774 851.469847 650.019822 863.338821 466.480766l43.51957-15.48127c12.729044-4.472367 21.32975-16.685369 21.32975-30.102469l0-132.794893C928.016126 270.38468 913.738955 256.107509 896.021502 256.107509zM639.892491 112.303712 639.892491 121.936503c28.0383 21.845792 50.400134 43.003528 63.645221 72.761969-29.070385-4.644381-61.581052-2.92424-87.727196-2.92424-31.994625 0-59.344868-0.860071-76.030237 1.032085-35.090879 3.956325-60.376953 38.703175-56.592642 73.794053 3.956325 35.090879 35.778935 60.720981 70.697799 56.592642 71.213842-7.568621 149.82429 0.688056 181.302873 13.933143 1.376113 29.242399 1.032085 60.032925 1.032085 83.426844 0 136.923232-83.254829 218.113892-216.737779 221.038132-0.688056 0-18.749538 0-19.437594 0-133.48295-2.752226-213.469511-84.974971-213.469511-222.070217 0-84.630942 1.376113-222.758273 97.359987-297.756425l0-9.63279c-127.978498-19.953637-226.026541-72.589955-226.026541-142.083655 0-17.717453 14.793214-34.230808 32.510667-34.230808l628.023518 0c17.717453 0 39.907274 16.513355 39.907274 34.230808C858.522426 39.713758 768.043004 92.178061 639.892491 112.303712z"  horiz-adv-x="1024" />

    
    <glyph glyph-name="kefu" unicode="&#59203;" d="M190.591634-64.526793c-17.717453 0-31.994625 14.277171-31.994625 31.994625 0 69.493701 82.050731 119.721821 226.370569 139.847472l0 9.63279c-97.876029 74.998152-97.876029 213.985554-97.876029 298.616496 0 139.675458 82.222745 223.102301 219.834033 223.102301l7.396607 0c137.611288 0 219.834033-83.426844 219.834033-223.102301 0-10.320847-0.172014-20.641693-0.344028-31.306568-0.516042-17.717453-14.965228-31.650596-32.854695-31.134554-17.717453 0.516042-31.650596 15.137242-31.134554 32.854695 0.344028 9.976818 0.344028 19.781623 0.344028 29.586427 0 105.616664-52.464304 159.113052-155.844784 159.113052l-7.396607 0c-103.38048 0-155.844784-53.496388-155.844784-159.113052 0-102.176382 6.364522-206.244919 83.082815-255.096926 9.288762-5.84848 14.793214-15.997312 14.793214-27.006215L448.956828 78.932975c0-16.341341-12.385016-30.102469-28.554342-31.82261-128.494541-13.589115-197.816227-51.260205-197.816227-79.642533C222.586259-50.077608 208.137074-64.526793 190.591634-64.526793zM833.752394-64.526793c-17.717453 0-31.994625 14.277171-31.994625 31.994625 0 28.554342-69.321687 66.053418-197.816227 79.642533-16.341341 1.720141-28.726356 15.48127-28.726356 31.82261l0 54.700487c0 17.717453 14.277171 31.994625 31.994625 31.994625s31.994625-14.277171 31.994625-31.994625l0-26.318159c144.319839-19.953637 226.370569-70.353771 226.370569-139.847472C865.747018-50.077608 851.469847-64.526793 833.752394-64.526793zM612.198219 222.564757c-44.035612 0-76.890307 4.472367-77.750378 4.644381-15.825298 4.816395-25.286074 20.813707-21.845792 37.155048 3.268268 16.169326 18.40551 26.834201 34.918864 25.286074 79.814547-8.77272 201.600538-1.204099 222.930287 43.175542 7.568621 15.825298 26.662187 22.705863 42.659499 14.965228 15.997312-7.568621 22.705863-26.834201 14.965228-42.659499C794.705191 235.63783 687.368386 222.564757 612.198219 222.564757zM896.021502 256.107509c-17.717453 0-31.994625 14.277171-31.994625 31.994625l0 111.809172-42.831514 15.309256c-12.729044 4.472367-21.32975 16.685369-21.32975 30.102469 0 160.489165-129.182597 291.219889-287.951621 291.219889-158.769024 0-287.951621-130.730724-287.951621-291.219889 0-10.320847-4.988409-19.953637-13.417101-25.974131l-18.577524-13.245087 0-118.00168c0-17.717453-14.277171-31.994625-31.994625-31.994625s-31.994625 14.277171-31.994625 31.994625l0 134.34302c0 10.320847 4.988409 19.953637 13.417101 25.974131l18.921552 13.589115C169.089871 650.019822 323.386528 800.360155 511.913993 800.360155c186.463296 0 339.555854-147.072065 351.252814-332.331262l43.51957-15.48127c12.729044-4.472367 21.32975-16.685369 21.32975-30.102469l0-134.34302C928.016126 270.38468 913.738955 256.107509 896.021502 256.107509z"  horiz-adv-x="1024" />

    
    <glyph glyph-name="liuyanfill" unicode="&#59204;" d="M832.032253 768.021502l-639.892491 0c-52.980346 0-95.983874-43.003528-95.983874-95.983874l0-511.913993c0-52.980346 43.003528-95.983874 95.983874-95.983874l210.717285 0 86.695112-86.695112c6.192508-6.192508 14.449185-9.460776 22.705863-9.460776s16.341341 3.096254 22.705863 9.460776l86.695112 86.695112 210.717285 0c52.980346 0 95.983874 43.003528 95.983874 95.983874L928.360155 672.037628C928.016126 725.017974 884.840585 768.021502 832.032253 768.021502zM335.943558 384.086007c-26.490173 0-47.991937 21.501764-47.991937 47.991937s21.501764 47.991937 47.991937 47.991937 47.991937-21.501764 47.991937-47.991937S362.433731 384.086007 335.943558 384.086007zM527.911305 384.086007c-26.490173 0-47.991937 21.501764-47.991937 47.991937s21.501764 47.991937 47.991937 47.991937 47.991937-21.501764 47.991937-47.991937S554.401478 384.086007 527.911305 384.086007zM720.051067 384.086007c-26.490173 0-47.991937 21.501764-47.991937 47.991937s21.501764 47.991937 47.991937 47.991937c26.490173 0 47.991937-21.501764 47.991937-47.991937S746.369226 384.086007 720.051067 384.086007z"  horiz-adv-x="1024" />

    
    <glyph glyph-name="liuyan" unicode="&#59205;" d="M511.913993-32.016126c-8.256677 0-16.341341 3.096254-22.705863 9.460776l-95.983874 95.983874c-12.55703 12.55703-12.55703 32.682681 0 45.239711s32.682681 12.55703 45.239711 0l73.450025-73.450025 73.450025 73.450025c6.020494 6.020494 14.105157 9.460776 22.705863 9.460776l223.962372 0c17.717453 0 31.994625 14.277171 31.994625 31.994625L864.026877 672.037628c0 17.545439-14.277171 31.994625-31.994625 31.994625l-639.892491 0c-17.545439 0-31.994625-14.449185-31.994625-31.994625l0-511.913993c0-17.717453 14.449185-31.994625 31.994625-31.994625l95.983874 0c17.717453 0 31.994625-14.277171 31.994625-31.994625s-14.277171-31.994625-31.994625-31.994625l-95.983874 0c-52.980346 0-95.983874 43.003528-95.983874 95.983874L96.155888 672.037628c0 52.980346 43.003528 95.983874 95.983874 95.983874l639.892491 0c52.980346 0 95.983874-43.003528 95.983874-95.983874l0-511.913993c0-52.980346-43.003528-95.983874-95.983874-95.983874L621.142953 64.139761 534.619856-22.55535C528.427348-28.747858 520.17067-32.016126 511.913993-32.016126zM335.943558 384.086007c-26.490173 0-47.991937 21.501764-47.991937 47.991937s21.501764 47.991937 47.991937 47.991937 47.991937-21.501764 47.991937-47.991937S362.433731 384.086007 335.943558 384.086007zM527.911305 384.086007c-26.490173 0-47.991937 21.501764-47.991937 47.991937s21.501764 47.991937 47.991937 47.991937 47.991937-21.501764 47.991937-47.991937S554.401478 384.086007 527.911305 384.086007zM720.051067 384.086007c-26.490173 0-47.991937 21.501764-47.991937 47.991937s21.501764 47.991937 47.991937 47.991937c26.490173 0 47.991937-21.501764 47.991937-47.991937S746.369226 384.086007 720.051067 384.086007z"  horiz-adv-x="1024" />

    
    <glyph glyph-name="pengyoufill" unicode="&#59206;" d="M518.966571 242.174366l0 6.70855c89.791366 64.161263 89.447337 175.282379 89.275323 265.589787l0 13.589115c0 130.730724-78.782463 208.653116-210.717285 208.653116l-6.70855 0c-126.602385 0-196.2681-74.138082-196.2681-208.653116 0-67.945574 0-205.728876 103.552495-279.178901l0-5.332437c-120.065849-17.029397-232.735092-66.225433-232.735092-144.663867 0-109.056946 107.680833-162.037292 329.062993-162.037292 283.30724 0 342.824122 88.071225 342.824122 162.037292C737.252478 182.829498 598.437091 226.86511 518.966571 242.174366zM929.564253 128.301025c-17.545439 0-31.82261 14.277171-31.994625 31.82261-0.344028 23.393919-101.660339 88.415253-197.300185 99.768184-16.169326 1.892155-28.210314 15.653284-28.210314 31.82261l0 66.225433c0 9.804804 4.472367 18.921552 12.040988 24.942046 54.012431 43.175542 94.951789 137.26726 94.951789 218.801949 0 109.917017-74.310096 132.966907-136.579204 132.966907-17.717453 0-31.994625 14.277171-31.994625 31.994625s14.277171 31.994625 31.994625 31.994625c123.678145 0 200.568453-75.514195 200.568453-197.128171 0-94.779775-44.207626-200.396439-106.992777-258.365194l0-24.598018c91.855535-19.609609 225.682513-83.942886 225.682513-158.59701 0-17.545439-14.277171-31.650596-31.82261-31.82261C929.736267 128.301025 929.736267 128.301025 929.564253 128.301025z"  horiz-adv-x="1024" />

    
    <glyph glyph-name="pengyou" unicode="&#59207;" d="M401.30892-64.182765c-226.542584 0-336.631614 52.980346-336.631614 162.209306 0 76.718293 114.389384 127.118428 229.982866 144.663867l0 6.536536c-86.351083 66.053418-97.876029 184.055098-97.876029 281.071057 0 132.106837 77.750378 211.061314 208.137074 211.061314l6.880564 0c130.386696 0 208.137074-78.954477 208.137074-211.061314 0-97.015958-11.524945-214.845624-97.876029-281.071057l0-6.536536c115.593482-17.545439 229.982866-67.77356 229.982866-144.663867C752.045691 23.88846 691.152696-64.182765 401.30892-64.182765zM404.921216 677.198051c-95.639845 0-144.147825-49.540064-144.147825-147.072065 0-91.339493 9.804804-190.763649 83.082815-237.379473 9.288762-5.84848 14.793214-15.997312 14.793214-27.006215l0-51.260205c0-16.341341-12.385016-30.102469-28.554342-31.82261-121.097934-12.729044-201.428523-59.344868-201.428523-84.630942 0-65.193348 91.683521-98.220057 272.642365-98.220057 182.162943 0 286.747522 35.778935 286.747522 98.220057 0 25.286074-80.33059 71.901898-201.428523 84.630942-16.341341 1.720141-28.554342 15.48127-28.554342 31.82261l0 51.260205c0 11.008903 5.676466 21.157736 14.793214 27.006215 73.105997 46.615824 83.082815 146.211994 83.082815 237.379473 0 97.532001-48.507979 147.072065-144.147825 147.072065L404.921216 677.198051 404.921216 677.198051zM899.117756 132.257349c-17.717453 0-31.994625 14.277171-31.994625 31.994625 0 24.426004-91.167479 83.942886-196.956157 95.123803-16.341341 1.720141-28.726356 15.48127-28.726356 31.82261L641.440618 357.595834c0 11.008903 5.676466 21.157736 14.793214 27.006215 82.738787 52.636318 91.683521 169.777927 91.683521 217.769864 0 110.433059-74.654124 133.654964-137.26726 133.654964-17.717453 0-31.994625 14.277171-31.994625 31.994625s14.277171 31.994625 31.994625 31.994625c124.194188 0 201.256509-75.686209 201.256509-197.644213 0-55.732572-10.664875-188.699479-106.476734-261.289434l0-22.18982c102.176382-18.577524 225.682513-79.986561 225.682513-154.640685C931.284394 146.53452 916.835209 132.257349 899.117756 132.257349z"  horiz-adv-x="1024" />

    
    <glyph glyph-name="shouyefill" unicode="&#59216;" d="M982.028557 491.594826 573.32303 812.057114c-34.918864 27.694272-89.619352 27.694272-124.538216 0L43.175542 491.422812c-13.933143-11.008903-16.169326-31.134554-5.332437-44.895683s31.134554-16.169326 44.895683-5.332437l13.073072 10.320847 0-387.547791c0-54.872501 56.936671-95.983874 107.852847-95.983874l639.892491 0c50.22812 0 84.1149 38.531161 84.1149 95.983874L927.672098 452.547623l14.449185-11.352931c5.84848-4.644381 12.729044-6.880564 19.781623-6.880564 9.460776 0 18.921552 4.128339 25.286074 12.213002C998.369898 460.460272 995.789686 480.585923 982.028557 491.594826zM607.897867 98.886612l0-66.741475-63.989249 0-63.989249 0-63.989249 0 0 66.741475 0 112.325214c0 37.155048 30.102469 77.234336 95.983874 77.234336 66.053418 0 95.983874-40.079288 95.983874-77.234336L607.897867 98.886612 607.897867 98.886612z"  horiz-adv-x="1024" />

    
    <glyph glyph-name="shouye" unicode="&#59217;" d="M979.792374 491.422812 574.183101 812.057114c-34.918864 27.694272-89.619352 27.694272-124.538216 0L44.207626 491.422812c-13.933143-11.008903-16.169326-31.134554-5.332437-44.895683s30.618512-16.169326 44.551655-5.332437l12.55703 10.320847 0-387.547791c0-54.872501 57.968755-95.983874 108.712918-95.983874l639.892491 0c50.22812 0 83.254829 38.531161 83.254829 95.983874L927.844112 450.139425l11.69696-8.944734c5.84848-4.644381 13.073072-6.880564 20.125651-6.880564 9.460776 0 18.921552 4.128339 25.286074 12.213002C995.9617 460.288258 993.725517 480.413909 979.792374 491.422812zM479.919368 31.973123 479.919368 209.491685c0 8.77272 15.997312 13.245087 31.994625 13.245087s31.994625-4.472367 31.994625-13.245087l0-177.346548L479.919368 31.973123 479.919368 31.973123zM864.026877 63.967747c0-21.157736-5.84848-31.994625-19.26558-31.994625L608.585923 31.973123c0 0.516042-0.688056 0.860071-0.688056 1.376113L607.897867 209.491685c0 37.155048-29.930455 77.234336-95.983874 77.234336s-95.983874-40.079288-95.983874-77.234336l0-176.142449c0-0.516042 0.860071-0.860071 0.860071-1.376113L204.868806 31.973123c-20.125651 0-44.723669 17.373425-44.723669 31.994625L160.145137 502.259701 488.864102 761.828994c11.868974 9.288762 33.198723 9.288762 44.895683 0l330.095078-261.11742L863.854863 63.967747z"  horiz-adv-x="1024" />

    
    <glyph glyph-name="tongzhifill" unicode="&#59224;" d="M889.828994 146.362506c-1.204099 1.720141-119.205779 165.821603-119.205779 287.435579 0 168.401814-76.202251 254.752898-162.725349 286.919536L607.897867 736.026877c0 52.980346-43.175542 95.983874-95.983874 95.983874S415.930119 788.835209 415.930119 736.026877l0-15.309256c-86.523098-32.166639-162.725349-118.517722-162.725349-286.919536 0-121.269948-118.00168-285.199395-119.205779-286.919536-5.332437-7.568621-7.396607-16.857383-5.332437-25.974131 2.064169-8.944734 7.912649-16.685369 15.997312-20.985721 5.676466-3.096254 107.336805-57.280699 233.423148-84.458928 21.32975-66.397447 73.966068-111.29313 133.654964-111.29313s112.325214 44.895683 133.654964 111.29313c126.086343 27.178229 227.746682 81.018646 233.423148 83.942886 8.256677 4.472367 13.933143 12.040988 16.169326 20.985721C897.225601 129.333109 895.333445 138.793885 889.828994 146.362506zM479.919368 736.026877c0 17.545439 14.449185 31.994625 31.994625 31.994625 17.545439 0 31.994625-14.449185 31.994625-31.994625l0-0.860071c-7.224593 0.516042-14.277171 0.860071-21.32975 0.860071l-21.32975 0c-7.052579 0-14.105157-0.344028-21.32975-0.860071L479.919368 736.026877 479.919368 736.026877zM511.913993-32.016126c-22.361834 0-43.175542 13.417101-57.968755 35.262893 19.26558-2.064169 38.531161-3.268268 57.968755-3.268268s38.875189 1.376113 57.968755 3.268268C555.089535-18.599026 534.275827-32.016126 511.913993-32.016126z"  horiz-adv-x="1024" />

    
    <glyph glyph-name="tongzhi" unicode="&#59225;" d="M889.828994 146.362506c-1.204099 1.548127-119.205779 166.165631-119.205779 287.435579 0 168.401814-76.202251 254.752898-162.725349 286.919536L607.897867 736.026877c0 52.980346-43.175542 95.983874-95.983874 95.983874S415.930119 788.835209 415.930119 736.026877l0-16.685369c-10.836889-7.912649-16.169326-21.845792-11.868974-35.262893 5.332437-16.857383 23.393919-25.974131 40.251302-20.641693 17.717453 5.676466 36.983034 8.428691 56.936671 8.428691l21.32975 0c115.249454 0 184.055098-89.103309 184.055098-238.239543 0-108.024861 72.933983-235.315303 110.261045-293.456073-57.452713-26.146145-183.023014-76.202251-304.809004-76.202251-121.441962 0-247.356291 50.400134-304.809004 76.546279 37.327062 57.968755 110.089031 184.915169 110.089031 293.112044 0 62.441122 11.524945 114.217369 34.574836 153.952629 8.77272 15.309256 3.612296 34.918864-11.69696 43.691584-15.48127 8.944734-34.918864 3.612296-43.691584-11.69696-28.554342-49.540064-43.175542-112.1532-43.175542-185.947253 0-121.269948-118.00168-285.199395-119.205779-286.919536-5.332437-7.568621-7.396607-16.857383-5.332437-25.974131 2.064169-8.944734 7.912649-16.685369 15.997312-20.985721 5.676466-3.096254 107.336805-57.280699 233.423148-84.458928 21.32975-66.397447 73.966068-111.29313 133.654964-111.29313s112.325214 44.895683 133.654964 111.29313c126.086343 27.178229 227.746682 81.018646 233.423148 83.942886 8.084663 4.472367 13.933143 12.040988 16.169326 20.985721C897.225601 129.333109 895.333445 138.793885 889.828994 146.362506zM501.249118 736.026877c-7.224593 0-14.277171-1.032085-21.32975-1.548127L479.919368 736.026877c0 17.545439 14.449185 31.994625 31.994625 31.994625 17.545439 0 31.994625-14.449185 31.994625-31.994625l0-0.860071c-7.224593 0.516042-14.277171 0.860071-21.32975 0.860071L501.249118 736.026877zM511.913993-32.016126c-22.361834 0-43.175542 13.417101-57.968755 35.262893 19.26558-2.064169 38.531161-3.268268 57.968755-3.268268s38.875189 1.376113 57.968755 3.268268C555.089535-18.599026 534.275827-32.016126 511.913993-32.016126z"  horiz-adv-x="1024" />

    
    <glyph glyph-name="xihuanfill" unicode="&#59232;" d="M736.048379 768.021502c-65.881404 0-128.494541-24.942046-176.314463-70.525785-4.644381-4.300353-28.726356-28.726356-47.30388-47.647909l-47.30388 47.131866c-47.819923 45.755753-110.605073 71.041828-177.00252 71.041828-141.223585 0-255.956996-114.905426-255.956996-255.956996 0-82.394759 41.111372-144.319839 76.546279-182.506971l316.849992-320.11826c25.11406-25.11406 52.980346-41.455401 86.695112-41.455401 33.714766 0 61.581052 16.341341 86.695112 41.455401l316.677977 319.946246 2.236183 2.408198c38.187133 47.647909 74.310096 92.715606 74.310096 180.098774C992.005375 653.116076 877.09995 768.021502 736.048379 768.021502z"  horiz-adv-x="1024" />

    
    <glyph glyph-name="xihuan" unicode="&#59233;" d="M511.913993-32.016126c-28.898371 0-57.968755 12.729044-86.695112 41.455401L106.30472 331.965732C68.117588 379.61364 31.994625 424.681337 31.994625 512.064505c0 141.223585 114.905426 255.956996 255.956996 255.956996 53.15236 0 104.068537-16.169326 147.244079-46.615824 14.449185-10.148833 17.889467-30.102469 7.740635-44.551655-10.148833-14.449185-30.102469-17.889467-44.551655-7.740635-32.338653 22.877877-70.525785 34.918864-110.433059 34.918864-105.960692 0-191.967747-86.179069-191.967747-191.967747 0-61.409037 20.297665-90.135394 59.172854-138.643373l315.645893-318.742147c15.997312-15.997312 28.898371-22.361834 41.283387-22.533848 12.729044-0.172014 24.942046 6.192508 41.455401 22.705863l316.677977 319.946246c25.974131 28.210314 57.968755 75.858223 57.968755 137.439274 0 105.960692-86.179069 191.967747-191.967747 191.967747-47.991937 0-94.091718-17.889467-129.526625-50.22812l-133.998992-134.171006c-12.55703-12.55703-32.682681-12.55703-45.239711 0s-12.55703 32.682681 0 45.239711l135.031077 135.203091c48.335965 44.207626 109.745003 67.945574 173.734252 67.945574 141.223585 0 255.956996-114.905426 255.956996-255.956996 0-82.394759-41.111372-144.319839-75.686209-181.646901L598.781119 9.611288C569.882748-19.287082 540.984378-32.016126 511.913993-32.016126z"  horiz-adv-x="1024" />

    
    <glyph glyph-name="xinxifill" unicode="&#59234;" d="M511.913993 828.914497C264.90173 828.914497 63.989249 656.556358 63.989249 444.806988c0-116.453553 62.957164-226.026541 174.07828-301.368722l84.1149-51.948261c-3.612296-23.565933-18.749538-74.48211-33.370737-115.93751-4.300353-12.040988-0.860071-25.458088 8.428691-34.230808 6.020494-5.504452 13.761129-8.428691 21.673778-8.428691 4.472367 0 8.77272 0.860071 13.073072 2.752226 36.466991 16.169326 147.416093 68.977658 187.49538 125.398287 243.571981 3.440282 440.356123 174.422308 440.356123 383.935495C960.010751 656.556358 759.09827 828.914497 511.913993 828.914497zM580.203595 352.091382 384.967579 352.091382c-17.717453 0-31.994625 14.277171-31.994625 31.994625s14.277171 31.994625 31.994625 31.994625l195.236015 0c17.717453 0 31.994625-14.277171 31.994625-31.994625S597.921048 352.091382 580.203595 352.091382zM640.924576 480.069881 384.967579 480.069881c-17.717453 0-31.994625 14.277171-31.994625 31.994625s14.277171 31.994625 31.994625 31.994625l255.956996 0c17.717453 0 31.994625-14.277171 31.994625-31.994625C672.9192 494.347052 658.642029 480.069881 640.924576 480.069881z"  horiz-adv-x="1024" />

    
    <glyph glyph-name="xinxi" unicode="&#59235;" d="M639.892491 480.069881 383.935495 480.069881c-17.717453 0-31.994625 14.277171-31.994625 31.994625s14.277171 31.994625 31.994625 31.994625L639.892491 544.05913c17.717453 0 31.994625-14.277171 31.994625-31.994625S657.609945 480.069881 639.892491 480.069881zM579.17151 352.091382 383.935495 352.091382c-17.717453 0-31.994625 14.277171-31.994625 31.994625S366.390055 416.080632 383.935495 416.080632l195.236015 0c17.717453 0 31.994625-14.277171 31.994625-31.994625S596.888964 352.091382 579.17151 352.091382zM962.246934 448.075256c0 211.74937-200.912481 383.935495-447.924744 383.935495S66.225433 659.824626 66.225433 448.075256c0-116.453553 62.957164-226.026541 172.874181-300.680665 14.621199-9.976818 34.574836-6.192508 44.379641 8.428691 9.976818 14.621199 6.192508 34.574836-8.428691 44.379641-92.027549 62.441122-144.835881 152.74853-144.835881 247.700319 0 176.486477 172.186125 319.946246 383.935495 319.946246s383.935495-143.631782 383.935495-319.946246-172.186125-319.946246-383.935495-319.946246c-2.064169 0-3.612296-0.688056-5.504452-1.204099-15.137242 2.752226-30.446498-5.160423-35.778935-20.125651-6.192508-17.373425-46.44381-46.615824-94.091718-73.794053 17.373425 58.140769 9.116748 70.697799 3.440282 78.954477-6.70855 9.976818-17.889467 15.997312-29.930455 15.997312-17.717453 0-31.994625-14.277171-31.994625-31.994625 0-5.84848 1.548127-11.180917 4.300353-15.997312-3.268268-18.233496-17.201411-60.892995-33.026709-99.768184-4.988409-12.040988-2.064169-25.974131 7.396607-35.090879 6.020494-5.84848 14.105157-8.944734 22.18982-8.944734 4.300353 0 8.77272 0.860071 13.073072 2.752226 36.466991 16.341341 147.588107 69.149672 187.667395 125.570301C765.290778 67.924072 962.246934 238.390055 962.246934 448.075256z"  horiz-adv-x="1024" />

    
    <glyph glyph-name="yonghufill" unicode="&#59271;" d="M631.119772 276.577188l0.344028 16.685369c79.298505 55.388544 117.829666 153.092558 117.829666 297.756425 0 139.503444-87.211154 222.758273-233.423148 222.758273l-7.912649 0c-146.03998 0-233.423148-83.254829-233.423148-222.758273 0-143.975811 38.875189-241.679825 118.86175-297.412397l0-16.857383c-133.138922-17.889467-266.621871-70.869814-266.621871-151.88846 0-113.357299 129.526625-170.810012 385.139593-170.810012s385.139593 57.452713 385.139593 170.810012C897.053586 205.707374 763.914665 258.68772 631.119772 276.577188z"  horiz-adv-x="1024" />

    
    <glyph glyph-name="yonghu" unicode="&#59272;" d="M511.913993-45.605241c-255.612968 0-385.311608 57.452713-385.311608 170.810012 0 80.846632 133.654964 133.998992 266.621871 151.88846L393.224257 293.950613c-79.986561 55.904586-118.86175 153.436587-118.86175 297.240383 0 139.33143 87.211154 222.586259 233.423148 222.586259l7.912649 0c146.211994 0 233.423148-83.254829 233.423148-222.586259 0-54.184445 0-214.67361-117.829666-297.412397l-0.344028-16.685369c132.966907-18.061482 266.105829-71.041828 266.105829-151.716445C897.225601 11.847472 767.526961-45.605241 511.913993-45.605241zM507.957668 754.432387c-79.470519 0-174.250294-28.382328-174.250294-163.241391 0-129.698639 34.230808-213.469511 104.584579-255.784982 8.944734-5.332437 14.277171-14.965228 14.277171-25.286074l0-59.344868c0-15.309256-11.524945-28.0383-26.662187-29.414413-144.319839-14.449185-239.959684-67.429531-239.959684-95.983874 0-92.199563 177.346548-111.637158 325.966739-111.637158 148.792206 0 325.966739 19.26558 325.966739 111.637158 0 28.726356-95.639845 81.534688-239.959684 95.983874-15.48127 1.548127-27.006215 14.621199-26.662187 30.102469l1.376113 59.344868c0.172014 10.148833 5.676466 19.437594 14.277171 24.770032 70.525785 42.487485 103.208466 123.678145 103.208466 255.784982 0 135.031077-94.779775 163.241391-174.250294 163.241391L507.957668 754.432387 507.957668 754.432387z"  horiz-adv-x="1024" />

    
    <glyph glyph-name="zantongfill" unicode="&#59283;" d="M864.198891 512.064505l-189.215522 0c13.761129 31.994625 29.586427 114.733412 20.297665 189.731564C688.056442 761.828994 652.965564 807.928775 601.705359 825.302201c-38.015118 12.901058-78.26642 6.70855-99.940198-15.48127-25.802117-26.318159-37.843104-75.858223-50.744163-128.322526-8.428691-34.402822-17.029397-69.837729-27.866286-88.243239-31.134554-52.980346-96.67193-81.362674-109.572988-81.362674l-89.619352 0c-17.717453 0-31.994625-14.449185-31.994625-32.166639l0-447.924744c0-17.717453 14.277171-31.994625 31.994625-31.994625l86.523098 0c26.834201 0 126.430371-63.989249 241.851839-63.989249l215.877709 0c35.606921 0 96.843944 13.761129 119.721821 51.776247 23.049891 38.531161 71.901898 388.75189 71.901898 427.455065C959.838737 468.888964 907.546447 512.064505 864.198891 512.064505zM95.983874 511.892491c-17.717453 0-31.994625-14.277171-31.994625-31.994625l0-447.924744c0-17.717453 14.277171-31.994625 31.994625-31.994625s31.994625 14.277171 31.994625 31.994625L127.978498 479.897867C127.978498 497.61532 113.701327 511.892491 95.983874 511.892491z"  horiz-adv-x="1024" />

    
    <glyph glyph-name="zantong" unicode="&#59284;" d="M95.983874-0.021502c-17.717453 0-31.994625 14.277171-31.994625 31.994625L63.989249 480.069881c0 17.717453 14.277171 31.994625 31.994625 31.994625s31.994625-14.277171 31.994625-31.994625l0-447.924744C127.978498 14.255669 113.701327-0.021502 95.983874-0.021502zM864.198891 512.064505 674.811356 512.064505c13.761129 31.994625 29.586427 114.733412 20.469679 190.075592C688.056442 762.001008 652.793549 807.928775 601.533345 825.474215c-38.015118 12.901058-78.26642 6.536536-99.940198-15.48127-25.802117-26.318159-37.843104-75.858223-50.744163-128.322526-8.428691-34.230808-17.029397-69.837729-27.866286-88.243239-31.134554-52.980346-96.327902-77.062322-109.400974-81.362674l-89.791366 0c-17.717453 0-31.994625-14.277171-31.994625-31.994625l0-447.924744c0-17.717453 14.277171-31.994625 31.994625-31.994625l86.523098 0c26.834201-14.449185 126.430371-63.989249 241.851839-63.989249l215.877709 0c35.606921 0 96.843944 13.761129 119.721821 51.776247 23.049891 38.531161 71.901898 388.75189 71.901898 427.455065C959.838737 468.716949 907.546447 512.064505 864.198891 512.064505zM833.236351 20.792206c-4.816395-8.084663-36.466991-20.641693-64.84932-20.641693L552.337309 0.150512c-114.217369 0-215.189652 63.989249-216.221737 63.989249l0 0c-4.816395 0-10.148833 0-16.169326 0l-63.989249 0L255.956996 448.075256l63.989249 0c2.580212 0 4.988409 0.860071 7.396607 1.548127 0.516042 0.172014 1.032085 0 1.548127 0.172014 0.172014 0.172014 0.860071 0.344028 1.720141 0.516042 0.860071 0.344028 1.720141 0.344028 2.580212 0.860071 19.437594 6.364522 102.52041 37.327062 145.179909 109.917017 15.48127 26.318159 24.942046 64.84932 34.74685 105.44465 9.116748 37.843104 20.641693 84.974971 34.058794 98.564085 3.096254 2.580212 18.061482 6.020494 36.81102-1.376113 15.309256-6.020494 41.971443-23.049891 47.647909-69.665715 12.55703-102.52041-31.478582-200.052411-31.82261-201.084495-4.644381-9.976818-3.78431-21.157736 2.064169-30.274483 5.84848-9.116748 15.997312-14.449185 26.834201-14.449185l235.315303 0c8.77272 0 31.650596-14.965228 31.650596-32.854695C895.849488 372.561062 846.481438 51.066689 833.236351 20.792206z"  horiz-adv-x="1024" />

    
    <glyph glyph-name="leimupinleifenleileibie2" unicode="&#59384;" d="M320 832 192 832C121.6 832 64 774.4 64 704l0-128c0-70.4 57.6-128 128-128l128 0c70.4 0 128 57.6 128 128L448 704C448 774.4 390.4 832 320 832zM768 832l-128 0C569.6 832 512 774.4 512 704l0-128c0-70.4 57.6-128 128-128l128 0c70.4 0 128 57.6 128 128L896 704C896 774.4 838.4 832 768 832zM320 384 192 384c-70.4 0-128-57.6-128-128l0-128c0-70.4 57.6-128 128-128l128 0c70.4 0 128 57.6 128 128l0 128C448 326.4 390.4 384 320 384zM768 384l-128 0c-70.4 0-128-57.6-128-128l0-128c0-70.4 57.6-128 128-128l128 0c70.4 0 128 57.6 128 128l0 128C896 326.4 838.4 384 768 384z"  horiz-adv-x="1024" />

    
    <glyph glyph-name="leimupinleifenleileibie" unicode="&#59385;" d="M320 384 192 384c-70.4 0-128-57.6-128-128l0-128c0-70.4 57.6-128 128-128l128 0c70.4 0 128 57.6 128 128l0 128C448 326.4 390.4 384 320 384zM384 128c0-35.2-28.8-64-64-64L192 64c-35.2 0-64 28.8-64 64l0 128c0 35.2 28.8 64 64 64l128 0c35.2 0 64-28.8 64-64L384 128zM768 832l-128 0C569.6 832 512 774.4 512 704l0-128c0-70.4 57.6-128 128-128l128 0c70.4 0 128 57.6 128 128L896 704C896 774.4 838.4 832 768 832zM832 576c0-35.2-28.8-64-64-64l-128 0C604.8 512 576 540.8 576 576L576 704c0 35.2 28.8 64 64 64l128 0c35.2 0 64-28.8 64-64L832 576zM768 384l-128 0c-70.4 0-128-57.6-128-128l0-128c0-70.4 57.6-128 128-128l128 0c70.4 0 128 57.6 128 128l0 128C896 326.4 838.4 384 768 384zM832 128c0-35.2-28.8-64-64-64l-128 0c-35.2 0-64 28.8-64 64l0 128c0 35.2 28.8 64 64 64l128 0c35.2 0 64-28.8 64-64L832 128zM320 832 192 832C121.6 832 64 774.4 64 704l0-128c0-70.4 57.6-128 128-128l128 0c70.4 0 128 57.6 128 128L448 704C448 774.4 390.4 832 320 832zM384 576c0-35.2-28.8-64-64-64L192 512C156.8 512 128 540.8 128 576L128 704c0 35.2 28.8 64 64 64l128 0c35.2 0 64-28.8 64-64L384 576z"  horiz-adv-x="1024" />

    
    <glyph glyph-name="edit" unicode="&#58908;" d="M678.854949 858.074075 151.913033 858.074075C67.776878 858.074075 0 790.060281 0 706.161013L0 23.913062C0-60.223137 68.013787-128 151.913033-128L834.161006-128C918.297234-128 986.074039-59.986205 986.074039 23.913062L986.074039 543.123046 910.22219 467.271197 910.22219 23.913062C910.22219-18.194593 876.305262-52.148151 834.161006-52.148151L151.913033-52.148151C109.805422-52.148151 75.851849-18.231172 75.851849 23.913062L75.851849 706.161013C75.851849 748.268668 109.76885 782.222219 151.913033 782.222219L603.003099 782.222219 678.854949 858.074075ZM320.679497 197.145066 550.775881 262.471958 386.423442 425.819414 320.679497 197.145066ZM935.236535 644.587381 770.882048 807.936965 409.297774 448.578077 573.650213 285.244409 935.236535 644.587381ZM1011.623351 781.801538 908.897353 883.888662C891.877742 900.806437 863.36629 899.885305 845.211136 881.847962L795.896832 832.853058 960.252416 669.504541 1009.563575 718.514293C1027.718729 736.552704 1028.639817 764.881642 1011.623351 781.801538Z"  horiz-adv-x="1024" />

    
    <glyph glyph-name="917caidan_fenlei" unicode="&#59013;" d="M856.653 780.63c26.343-0.03 47.774-21.743 47.774-48.404v-219.733c0-12.992-4.978-25.159-14.015-34.257l-0.03-0.03-0.03-0.03c-9.083-9.176-20.693-14.025-33.577-14.025h-217.85c-26.275 0-47.65 21.714-47.65 48.405V732.288c0 26.657 21.376 48.343 47.65 48.343h217.728m-523.092-0.063v-0.003h51.166c13.013 0 25.234-5.06 34.41-14.246 8.959-8.968 13.884-20.789 13.87-33.285v-217.97c0-26.273-21.687-47.649-48.343-47.649H164.931c-12.992 0-25.158 4.977-34.256 14.014-9.215 9.154-14.086 20.786-14.086 33.638v217.85c0 26.275 21.715 47.651 48.405 47.651h168.567M382.09 309.21c26.277 0 47.654-21.714 47.654-48.405v-219.732c0-12.993-4.977-25.158-14.012-34.255-9.156-9.216-20.789-14.088-33.642-14.088H164.24c-26.275 0-47.65 21.715-47.65 48.405V260.868c0 26.656 21.376 48.342 47.65 48.342h217.85m473.995-3.327c13.003 0 25.212-5.053 34.378-14.231 8.98-8.989 13.915-20.859 13.9-33.424v-217.846c0-26.275-21.685-47.652-48.341-47.652H636.289c-12.992 0-25.159 4.977-34.256 14.014-9.215 9.154-14.086 20.786-14.086 33.638V258.231c0 26.276 21.714 47.652 48.405 47.652h219.733m0.628 525.913H638.926c-54.494 0-98.817-44.634-98.817-99.508v-219.732c0-54.933 44.323-99.57 98.817-99.57h217.85c26.43 0 51.291 10.358 69.937 29.193 18.646 18.771 28.88 43.758 28.88 70.314V732.228c0 54.868-44.324 99.505-98.88 99.568z m-471.986-0.063H164.994c-54.87 0-99.57-44.323-99.57-98.817v-217.85c0-26.43 10.359-51.228 29.193-69.937 18.771-18.645 43.758-28.879 70.314-28.879h219.733c54.873 0 99.508 44.32 99.508 98.814V732.976c0.062 54.431-44.575 98.754-99.445 98.754v0.003z m-2.637-471.358H164.24c-54.493 0-98.816-44.637-98.816-99.507v-219.733c0-54.87 44.323-99.57 98.817-99.57H382.09c26.431 0 51.229 10.358 69.94 29.193 18.646 18.772 28.88 43.758 28.88 70.314V260.805c0 54.933-44.324 99.57-98.82 99.57z m473.995-3.327H636.352c-54.87 0-99.57-44.324-99.57-98.817v-217.85c0-26.43 10.359-51.228 29.192-69.936 18.773-18.647 43.76-28.88 70.315-28.88h219.733c54.87 0 99.507 44.323 99.507 98.817V258.169c0.063 54.556-44.574 98.88-99.444 98.88z"  horiz-adv-x="1024" />

    
    <glyph glyph-name="weixuanzhong-01" unicode="&#58906;" d="M511.805 832.079c-247.423 0-447.999-200.576-447.999-448s200.576-448 447.999-448c247.424 0 448.001 200.576 448.001 448 0 247.423-200.577 448-448.001 448z m0-856c-225.332 0-407.999 182.668-407.999 408s182.667 408 407.999 408c225.332 0 408.001-182.667 408.001-408s-182.669-408-408.001-408z"  horiz-adv-x="1024" />

    
    <glyph glyph-name="xuanzhong" unicode="&#58925;" d="M512 832C262.4 832 64 633.6 64 384s198.4-448 448-448 448 198.4 448 448S761.6 832 512 832z m236.8-326.4L454.4 211.2c-12.8-12.8-32-12.8-44.8 0L275.2 352c-12.8 12.8-12.8 32 0 44.8 12.8 12.8 32 12.8 44.8 0l115.2-115.2L704 556.8c12.8 12.8 32 12.8 44.8 0 12.8-12.8 12.8-38.4 0-51.2z"  horiz-adv-x="1024" />

    
    <glyph glyph-name="shujudaping" unicode="&#59208;" d="M94.3 694.9V137h828.5V694.9H94.3z m794.6-524.1H128.1V661.1h760.8v-490.3z m-169.1 355c-18.7 0-33.8-15.1-33.8-33.8 0-4.1 0.7-8 2-11.6L558.6 379.8c-6.2 6.6-15 10.8-24.8 10.8-9.3 0-17.8-3.8-23.9-9.9l-63.6 63.6c1.9 4.2 3 9 3 13.9 0 18.7-15.1 33.8-33.8 33.8-18.7 0-33.8-15.1-33.8-33.8 0-4.3 0.8-8.4 2.3-12.2l-79.2-66c-6.2 6.5-14.9 10.6-24.5 10.6-18.7 0-33.8-15.1-33.8-33.8s15.1-33.8 33.8-33.8c18.7 0 33.8 15.1 33.8 33.8 0 4.3-0.8 8.4-2.3 12.2l79.2 66c6.2-6.5 14.9-10.6 24.5-10.6 9.3 0 17.8 3.8 23.9 9.9l63.6-63.6c-1.9-4.2-3-9-3-13.9 0-18.7 15.1-33.8 33.8-33.8 18.7 0 33.8 15.1 33.8 33.8 0 4.1-0.7 8-2 11.6L695.1 469c6.2-6.6 15-10.8 24.8-10.8 18.7 0 33.8 15.1 33.8 33.8s-15.2 33.8-33.9 33.8zM280.2 339.9c-9.3 0-16.9 7.6-16.9 16.9s7.6 16.9 16.9 16.9c9.3 0 16.9-7.6 16.9-16.9s-7.5-16.9-16.9-16.9z m135.3 101.4c-9.3 0-16.9 7.6-16.9 16.9s7.6 16.9 16.9 16.9 16.9-7.6 16.9-16.9-7.6-16.9-16.9-16.9z m118.4-101.4c-9.3 0-16.9 7.6-16.9 16.9s7.6 16.9 16.9 16.9 16.9-7.6 16.9-16.9-7.6-16.9-16.9-16.9z m185.9 135.2c-9.3 0-16.9 7.6-16.9 16.9 0 9.3 7.6 16.9 16.9 16.9 9.3 0 16.9-7.6 16.9-16.9 0-9.3-7.5-16.9-16.9-16.9z m-120.4-355l35.9-101.4H364.8l35.9 101.4H365l-50.9-135.3h372l-50.9 135.3h-35.8zM872 644.2H145v-16.9h727v16.9z"  horiz-adv-x="1024" />

    
    <glyph glyph-name="yigouxuan" unicode="&#58941;" d="M196.923077 896h630.153846a196.923077 196.923077 0 0 0 196.923077-196.923077v-630.153846a196.923077 196.923077 0 0 0-196.923077-196.923077H196.923077a196.923077 196.923077 0 0 0-196.923077 196.923077V699.076923a196.923077 196.923077 0 0 0 196.923077 196.923077z m0-78.769231a118.153846 118.153846 0 0 1-118.153846-118.153846v-630.153846a118.153846 118.153846 0 0 1 118.153846-118.153846h630.153846a118.153846 118.153846 0 0 1 118.153846 118.153846V699.076923a118.153846 118.153846 0 0 1-118.153846 118.153846H196.923077z m584.900923-258.205538a36.509538 36.509538 0 0 0 1.260308-51.633231l-299.480616-313.107692c-0.118154-0.157538-0.393846-0.236308-0.630154-0.472616l-0.393846-0.551384c-2.166154-2.126769-4.726154-3.229538-7.207384-4.726154-1.575385-0.866462-2.796308-2.166154-4.411077-2.835692a35.800615 35.800615 0 0 0-27.490462-0.07877c-1.260308 0.512-2.284308 1.614769-3.544615 2.284308-2.756923 1.457231-5.592615 2.835692-8.034462 5.12-0.196923 0.157538-0.275692 0.433231-0.512 0.669538-0.196923 0.118154-0.393846 0.196923-0.551384 0.354462l-150.843077 156.593231a36.430769 36.430769 0 0 0 0.945231 51.633231 36.391385 36.391385 0 0 0 51.63323-0.945231l124.455385-129.102769 273.092923 285.61723a36.548923 36.548923 0 0 0 51.712 1.181539z"  horiz-adv-x="1024" />

    
    <glyph glyph-name="weigouxuan" unicode="&#58942;" d="M196.923077 817.230769a118.153846 118.153846 0 0 1-118.153846-118.153846v-630.153846a118.153846 118.153846 0 0 1 118.153846-118.153846h630.153846a118.153846 118.153846 0 0 1 118.153846 118.153846V699.076923a118.153846 118.153846 0 0 1-118.153846 118.153846H196.923077z m0 78.769231h630.153846a196.923077 196.923077 0 0 0 196.923077-196.923077v-630.153846a196.923077 196.923077 0 0 0-196.923077-196.923077H196.923077a196.923077 196.923077 0 0 0-196.923077 196.923077V699.076923a196.923077 196.923077 0 0 0 196.923077 196.923077z"  horiz-adv-x="1024" />

    
    <glyph glyph-name="phone_light" unicode="&#59390;" d="M358.4 87.466667h14.933333c40.533333 0 155.733333 14.933333 275.2 174.933333 130.133333 172.8 100.266667 302.933333 91.733334 330.666667-12.8 55.466667-64 93.866667-119.466667 91.733333-66.133333-2.133333-117.333333-57.6-115.2-123.733333 0-27.733333 10.666667-53.333333 29.866667-74.666667l2.133333-2.133333c6.4-6.4 12.8-12.8 19.2-17.066667 29.866667-34.133333 6.4-81.066667-19.2-113.066667-34.133333-46.933333-72.533333-64-110.933333-49.066666-21.333333 17.066667-46.933333 25.6-74.666667 23.466666-32 0-61.866667-14.933333-83.2-38.4s-34.133333-53.333333-32-85.333333c0-32 14.933333-61.866667 38.4-83.2 21.333333-21.333333 51.2-32 81.066667-32-2.133333-2.133333 0-2.133333 2.133333-2.133333zM277.333333 204.8c0 21.333333 6.4 40.533333 21.333334 55.466667 14.933333 14.933333 32 23.466667 53.333333 23.466666s38.4-8.533333 49.066667-17.066666c2.133333-2.133333 2.133333-2.133333 4.266666-2.133334 34.133333-12.8 98.133333-23.466667 164.266667 61.866667 66.133333 87.466667 36.266667 142.933333 14.933333 170.666667l-4.266666 4.266666c-4.266667 2.133333-8.533333 6.4-14.933334 12.8-12.8 14.933333-19.2 29.866667-19.2 49.066667-2.133333 42.666667 32 78.933333 74.666667 78.933333 36.266667 0 68.266667-23.466667 76.8-59.733333v-2.133333c6.4-21.333333 34.133333-134.4-83.2-292.266667C492.8 128 384 128 364.8 130.133333h-10.666667c-21.333333 0-40.533333 6.4-55.466666 21.333334-12.8 12.8-21.333333 32-21.333334 53.333333zM512 832C264.533333 832 64 631.466667 64 384c0-85.333333 23.466667-166.4 68.266667-238.933333 6.4-10.666667 19.2-12.8 29.866666-6.4 8.533333 8.533333 12.8 21.333333 6.4 32C128 234.666667 106.666667 309.333333 106.666667 384 106.666667 608 288 789.333333 512 789.333333s405.333333-181.333333 405.333333-405.333333-181.333333-405.333333-405.333333-405.333333c-55.466667 0-106.666667 10.666667-157.866667 32-10.666667 4.266667-23.466667 0-27.733333-10.666667-4.266667-10.666667 0-23.466667 10.666667-27.733333 55.466667-23.466667 113.066667-34.133333 172.8-34.133334 247.466667 0 448 200.533333 448 448C960 631.466667 759.466667 832 512 832z"  horiz-adv-x="1024" />

    
    <glyph glyph-name="Myassessment" unicode="&#58953;" d="M567.6 93.5c0-11 10.7-20 23.9-20h362.7c13.2 0 23.9 9 23.9 20s-10.7 20-23.9 20H591.4c-13.1 0-23.8-9-23.8-20zM954.2-15.8H419.1c-13.2 0-23.9-9-23.9-20s10.7-20 23.9-20h535.1c13.2 0 23.9 9 23.9 20-0.1 11-10.8 20-23.9 20zM104.9-66.3c-11.3 0-22.1 4.3-30.2 12.1-10.9 10.4-15.7 25.4-12.8 40.1 8.7 45.1 55 273 110.5 343l0.2 0.3 0.7 0.8c1.2 1.6 2.5 3.3 4.3 5.1l0.1 0.1c0.3 0.3 0.7 0.6 1 0.9 0.4 0.4 0.9 1 1.4 1.5l454.1 454.1C667.9 825.4 712.8 844 760.4 844c47.7 0 92.5-18.6 126.2-52.3l21.2-21.2c33.7-33.7 52.3-78.6 52.3-126.2 0-47.7-18.6-92.5-52.3-126.2L836.7 447l-0.7-0.7-382.3-382.2c-0.5-0.5-1.1-1-1.5-1.4-0.3-0.3-0.6-0.7-1-1.1l-0.1-0.1c-1.7-1.7-3.3-2.9-4.4-3.7C379.8 1.7 159-54.3 115.3-65c-3.4-0.8-6.9-1.3-10.4-1.3z m100.2 372.2l-0.1-0.2-0.9-1.2c-41.3-51.2-84.2-229.2-103-326.2-0.3-1.3 0.2-2.6 1.1-3.5 0.7-0.7 1.7-1.1 2.7-1.1 0.3 0 0.6 0 0.9 0.1 94 23 266.3 73.1 315.6 114.9l1.3 1 0.7 0.8 0.7 0.7c0.3 0.3 0.7 0.6 1 0.9l0.3 0.2L806 473l0.1 0.2 2.2 2.1 71.2 71.2c26.2 26.2 40.6 60.9 40.6 97.9 0 37-14.4 71.8-40.6 97.9l-21.2 21.2c-26.2 26.2-60.9 40.6-97.9 40.6-37 0-71.8-14.4-97.9-40.6l-454-454-0.1-0.1c-0.4-0.4-0.8-0.9-1.1-1.3l-0.6-0.6-0.6-0.6c-0.2-0.2-0.3-0.3-0.5-0.4-0.1-0.1-0.2-0.2-0.3-0.4l-0.2-0.2zM651.6 789.7c-7.4-8.2-6.3-21.3 2.5-29.2L896 542.9c8.8-7.9 21.9-7.7 29.3 0.6 7.4 8.2 6.3 21.3-2.5 29.2L680.9 790.3c-8.8 7.9-21.9 7.6-29.3-0.6zM175.7 308.8c-7.4-8.2-6.3-21.3 2.5-29.2L420.1 62c8.8-7.9 21.9-7.7 29.3 0.6 7.4 8.2 6.3 21.3-2.5 29.2L205 309.4c-8.8 7.9-21.9 7.7-29.3-0.6z"  horiz-adv-x="1024" />

    
    <glyph glyph-name="Myquestionandansw" unicode="&#58954;" d="M844.6 133.8c0 21.4-24.4 38.7-54.4 38.7s-54.4-17.3-54.4-38.7c0-5.4 1.5-10.5 4.3-15.1h-63.6c0 56.4 51.2 102.2 114.3 102.2 63.1 0 114.3-45.7 114.3-102.2h-64.8c2.8 4.7 4.3 9.8 4.3 15.1zM664.6 117.5c0-7.4 14.1-13.3 31.4-13.3 17.4 0 31.4 6 31.4 13.3 0 7.3-14.1 13.3-31.4 13.3-17.3 0-31.4-5.9-31.4-13.3z m0 0M830.8 118.8s-0.3-10.4-9-15.1l-42.2-39.1s-26.7-24.5-27.1-45.1v-36.1h54.2s-0.7 17.7 0 33.1c0.2 11.9 63.3 63.2 63.3 63.2s24.4 19.1 24.1 39.1c-0.3 20.1-63.3 0-63.3 0z m0 0M737.5-85.9c0-21.5 17.5-39 39-39s39 17.5 39 39-17.5 39-39 39c-21.5-0.1-39-17.5-39-39z m0 0M546.1-90H211.4c-30.3 0-58.5 13.7-79.5 38.5-20.2 23.9-31.4 55.4-31.4 88.7V751.7c0 33.4 11.1 64.9 31.4 88.7 21 24.8 49.3 38.4 79.5 38.4h606.1c30.3 0 58.5-13.7 79.5-38.4 20.2-23.9 31.4-55.4 31.4-88.7v-434.8h-40V751.7c0 48.1-31.8 87.2-70.9 87.2H211.4c-39.1 0-70.9-39.1-70.9-87.2v-714.5c0-48.1 31.8-87.2 70.9-87.2h334.7v-40zM746.4 577.4H294.2c-16.3 0-29.5 8.9-29.5 20v0.1c0 11 13.2 19.9 29.5 19.9h452.2c16.3 0 29.5-8.9 29.5-19.9v-0.1c-0.1-11.1-13.2-20-29.5-20zM264.7 383.3v0.1c0 11 13.2 19.9 29.5 19.9h452.2c16.3 0 29.5-8.9 29.5-19.9v-0.1c0-11-13.2-19.9-29.5-19.9H294.2c-16.3 0-29.5 8.9-29.5 19.9z"  horiz-adv-x="1024" />

    
    <glyph glyph-name="tuichu" unicode="&#59101;" d="M224 192c-8 0-16 3.2-22.4 9.6l-160 160c-12.8 12.8-12.8 32 0 44.8l160 160c12.8 12.8 32 12.8 44.8 0 12.8-12.8 12.8-32 0-44.8L108.8 384l137.6-137.6c12.8-12.8 12.8-32 0-44.8-6.4-6.4-14.4-9.6-22.4-9.6z m416 160H80c-17.6 0-32 14.4-32 32s14.4 32 32 32h560c17.6 0 32-14.4 32-32s-14.4-32-32-32z m192-384H480c-52.8 0-96 43.2-96 96V192c0 17.6 14.4 32 32 32s32-14.4 32-32v-128c0-17.6 14.4-32 32-32h352c17.6 0 32 14.4 32 32V704c0 17.6-14.4 32-32 32H480c-17.6 0-32-14.4-32-32v-128c0-17.6-14.4-32-32-32s-32 14.4-32 32V704c0 52.8 43.2 96 96 96h352c52.8 0 96-43.2 96-96v-640c0-52.8-43.2-96-96-96z"  horiz-adv-x="1024" />

    
    <glyph glyph-name="caidan" unicode="&#58899;" d="M333.275 704.951h597.418c16.511 0 29.871 14.328 29.871 32s-13.36 32-29.871 32H333.275c-16.496 0-29.871-14.328-29.871-32s13.375-32 29.871-32zM930.693 416.5H333.275c-16.496 0-29.871-14.328-29.871-32s13.375-32 29.871-32h597.418c16.511 0 29.871 14.328 29.871 32s-13.36 32-29.871 32z m0-352.451H333.275c-16.496 0-29.871-14.313-29.871-32 0-17.687 13.375-32 29.871-32h597.418c16.511 0 29.871 14.313 29.871 32 0 17.687-13.36 32-29.871 32zM128.197 798.693c-35.211 0-63.76-28.549-63.76-63.76s28.549-63.76 63.76-63.76 63.761 28.549 63.761 63.76-28.55 63.76-63.761 63.76z m-0.118-350.659c-35.146 0-63.642-28.681-63.642-64.055 0-35.373 28.496-64.053 63.642-64.053s63.642 28.681 63.642 64.053c0 35.374-28.496 64.055-63.642 64.055z m-0.382-354.243c-34.935 0-63.26-28.325-63.26-63.261s28.325-63.26 63.26-63.26 63.261 28.324 63.261 63.26-28.326 63.261-63.261 63.261z"  horiz-adv-x="1024" />

    
    <glyph glyph-name="icon_alipay_line" unicode="&#60304;" d="M322.749752 150.762935c74.987878 0 149.936871 47.355541 208.79642 123.163087-83.736123 40.35715-154.673755 69.230758-231.311203 61.753459-20.720927-2.034333-59.624982-11.099802-80.896449-29.652343-63.759139-54.903447-25.614377-155.264203 103.411232-155.264203zM160.016437 831.978894h703.966103c53.016471 0 95.995331-42.97886 95.995331-95.995331v-703.966103c0-53.016471-42.97886-95.995331-95.995331-95.995331H160.016437c-53.016471 0-95.995331 42.97886-95.995331 95.995331V735.983563c0 53.016471 42.97886 95.995331 95.995331 95.995331z m735.964888-600.388073V735.983563c0 17.672498-14.326287 31.998785-31.998785 31.998785H160.016437c-17.672498 0-31.998785-14.326287-31.998785-31.998785v-703.966103c0-17.672498 14.326287-31.998785 31.998785-31.998785h703.966103c17.672498 0 31.998785 14.326287 31.998785 31.998785V111.397369c-64.164369 26.708292-209.505571 87.783299-292.64613 127.259382-73.051783-88.768743-167.301354-142.641721-265.137613-142.641721-165.469636 0-221.660402 142.991692-143.308917 237.131768 17.076934 20.521383 46.147016 40.116673 91.247191 51.093679 70.545706 17.113773 182.841282-10.679223 288.069904-44.970214 18.914792 34.440393 34.853809 72.354911 46.715975 112.724341H296.610418v32.458249h167.223583v58.144258H261.292028v32.457226h202.541973v82.95534s0 13.977339 14.329356 13.97734h81.733513v-96.93268h200.257953v-32.457226H559.89687v-58.144258h163.467025c-15.637142-63.282279-39.414685-121.517611-69.210291-172.657338 49.595558-17.72264 94.132914-34.505885 127.311571-45.469588 56.590879-18.723434 92.449575-29.05064 114.51615-34.735106z"  horiz-adv-x="1024" />

    
    <glyph glyph-name="icon_addressbook" unicode="&#60303;" d="M863.98254 831.978894H224.014007c-53.017494 0-95.995331-42.97886-95.995332-95.995331v-159.991877h-31.998784c-17.671475 0-31.998785-14.325263-31.998785-31.998785s14.32731-31.998785 31.998785-31.998785h31.998784v-255.988232h-31.998784c-17.671475 0-31.998785-14.325263-31.998785-31.998785s14.32731-31.998785 31.998785-31.998785h31.998784v-159.991877c0-53.017494 42.97886-95.995331 95.995332-95.995331h639.969556c53.017494 0 95.995331 42.97886 95.995331 95.995331V735.983563c-0.001023 53.016471-42.97886 95.995331-95.996354 95.995331z m31.998785-799.961434c0-17.673521-14.32731-31.998785-31.998785-31.998785H224.014007c-17.671475 0-31.998785 14.325263-31.998785 31.998785V192.009338h63.996546c17.671475 0 31.998785 14.325263 31.998785 31.998784 0 17.672498-14.32731 31.998785-31.998785 31.998785h-63.996546V511.994116h63.996546c17.671475 0 31.998785 14.325263 31.998785 31.998785s-14.32731 31.998785-31.998785 31.998785h-63.996546V735.983563c0 17.672498 14.32731 31.998785 31.998785 31.998785h639.969556c17.671475 0 31.998785-14.325263 31.998785-31.998785v-703.966103zM702.803627 331.160561c-2.945075 1.183965-5.835915 1.769296-8.600888 1.769297-9.31618 0-17.663288-6.072299-27.530007-18.430768-1.461281-1.837858-2.738367-3.52529-5.234211-6.896061-14.299681-19.305695-21.717627-24.88169-36.490076-20.212344-19.639293 6.17156-37.428448 17.811668-63.325258 44.131103-24.885783 25.297153-32.943296 36.541241-39.920198 51.995211a132.419915 132.419915 0 0 1-1.827624 3.966335c-7.554046 15.692401-1.355881 25.541723 20.494776 44.105521a619.619066 619.619066 0 0 1 3.472078 2.970658 170.380482 170.380482 0 0 1 1.655709 1.441838c15.421224 13.542434 21.182438 29.688159 16.139586 39.58967-12.866029 25.258267-52.41886 83.198887-65.965388 95.577823-8.679683 7.942903-21.99085 6.418176-40.267099-7.153934-5.464455-4.062526-12.710486-11.083429-19.72218-20.907169-11.042497-15.47546-18.10024-33.564443-19.374256-54.298674-4.046153-65.875337 32.448016-148.60248 93.112677-209.950709 57.149605-57.768705 121.326253-86.84902 191.100386-86.84902 5.077645 0 10.187013 0.161682 15.335267 0.480954 21.49864 1.349741 40.185234 9.556657 56.06797 22.405289 5.655813 4.578272 10.561543 9.441023 14.682397 14.277168 2.508123 2.940982 4.29277 5.354961 5.328356 6.945179 2.476401 3.460822 5.273097 8.553817 6.870477 13.929244 2.124384 7.16212 1.421372 12.386098-2.484587 16.114003-14.795984 14.083763-79.847559 59.470463-93.517907 64.999386z"  horiz-adv-x="1024" />

    
    <glyph glyph-name="icon_at" unicode="&#60305;" d="M450.451202 216.348676C525.144368 196.334853 609.444333 253.381104 635.088386 349.075583c25.63996 95.694479-18.844184 187.248661-93.538373 207.262484-74.693166 20.013823-158.993131-37.031405-184.637184-132.725884-25.640983-95.695502 18.84316-187.249685 93.538373-207.263507z m214.549448 324.971349l16.402575 61.217247c4.573155 17.069771 22.12081 27.200502 39.188534 22.626323 17.071817-4.574179 27.201525-22.119787 22.626323-39.190581L703.898565 439.223742c2.210341-15.998369 2.950192-32.494065 2.102894-49.253774 4.584412-29.328979 16.789385-55.654554 34.311457-75.278497 16.850783-18.87386 33.345456-26.687826 43.674708-26.687825 10.329253 0 26.823925 7.812943 43.674709 26.687825 22.575158 25.281803 36.32123 61.684898 36.32123 101.306291 0 194.394409-157.589155 351.983563-351.983563 351.983563-212.066907 0-383.981325-171.914418-383.981325-383.981325s171.914418-383.981325 383.981325-383.981325c153.238057 0 287.122323 82.857103 359.294063 206.212572a32.397874 32.397874 0 0 0 0.953721 1.777483c8.837272 15.304568 28.408003 20.547988 43.712571 11.712763 15.301498-8.836249 20.546965-28.405957 11.711739-43.710524l4.604878 7.978718c-81.794911-147.854443-239.346203-247.967558-420.277995-247.967558-247.411903 0-447.978894 200.566992-447.978895 447.978894s200.568015 447.977871 447.979918 447.977871c229.739405 0 415.980109-186.240705 415.980109-415.980109 0-106.033965-64.467267-191.990662-143.993508-191.990663-41.332361 0-78.595033 23.217794-104.855116 60.404742-47.546899-99.082646-148.956543-155.680688-245.243517-129.880069-110.957091 29.730115-173.095313 157.616784-138.789996 285.642622C329.400219 568.201256 447.158203 647.885086 558.113247 618.154971c44.508703-11.926634 81.163531-39.646975 106.887403-76.834946z"  horiz-adv-x="1024" />

    
    <glyph glyph-name="icon_coinpurse_line" unicode="&#60306;" d="M703.990662 352.001215c-35.344996 0-63.996546-28.652574-63.996546-63.996546s28.652574-63.996546 63.996546-63.996547h127.994116c35.344996 0 63.996546 28.652574 63.996547 63.996547s-28.652574 63.996546-63.996547 63.996546H703.990662z m0 63.99757h127.994116c70.688969 0 127.994116-57.305147 127.994116-127.994116s-57.305147-127.994116-127.994116-127.994116H703.990662c-70.688969 0-127.994116 57.305147-127.994116 127.994116s57.305147 127.994116 127.994116 127.994116zM339.429643 639.988232h396.559804V740.198561c0 3.774977-0.668219 7.520277-1.972934 11.06194-6.109138 16.582677-24.505114 25.073048-41.087791 18.962888L339.429643 639.988232z m-185.66356-0.200568L670.803819 830.275089c49.748031 18.328437 104.934934-7.142677 123.263371-56.890708a95.990215 95.990215 0 0 0 5.918803-33.18582v-100.211352h31.998785c53.016471 0 95.995331-42.97886 95.995331-95.995331v-63.996547c0-17.672498-14.326287-31.998785-31.998784-31.998785s-31.998785 14.326287-31.998785 31.998785v63.996547c0 17.672498-14.326287 31.998785-31.998785 31.998784H160.016437c-17.672498 0-31.998785-14.326287-31.998785-31.998784v-511.975441c0-17.672498 14.326287-31.998785 31.998785-31.998785h671.967318c17.672498 0 31.998785 14.326287 31.998785 31.998785v63.996546c0 17.672498 14.326287 31.998785 31.998785 31.998785s31.998785-14.326287 31.998784-31.998785v-63.996546c0-53.016471-42.97886-95.995331-95.995331-95.995331H160.016437c-53.016471 0-95.995331 42.97886-95.995331 95.995331V543.992901c0 50.916647 39.641859 92.574419 89.744977 95.794763z"  horiz-adv-x="1024" />

    
    <glyph glyph-name="icon_details" unicode="&#60307;" d="M510.651282 543.992901c-26.508747 0-47.998177 21.48943-47.998177 47.998177s21.48943 47.998177 47.998177 47.998177 47.997154-21.48943 47.997154-47.998177-21.48943-47.998177-47.997154-47.998177z m-31.998784-63.99757h31.998784c17.672498 0 31.998785-14.326287 31.998785-31.998785v-287.985993h47.998177c8.836249 0 15.999392-7.163143 15.999393-15.999393s-7.163143-15.999392-15.999393-15.999392H430.655344c-8.836249 0-15.999392 7.163143-15.999393 15.999392s7.163143 15.999392 15.999393 15.999393h47.998177V447.99757h-31.998785c-8.836249 0-15.999392 7.163143-15.999392 15.999392s7.163143 15.999392 15.999392 15.999392h31.997762z m31.998784-495.976048c220.909295 0 399.980717 179.071422 399.980718 399.980717S731.560578 783.980717 510.651282 783.980717 110.670565 604.909295 110.670565 384s179.071422-399.980717 399.980717-399.980717zM62.672388 384c0 247.406786 200.572108 447.978894 447.978894 447.978894s447.978894-200.572108 447.978895-447.978894-200.573131-447.977871-447.978895-447.977871S62.672388 136.594237 62.672388 384z"  horiz-adv-x="1024" />

    
    <glyph glyph-name="icon_delete" unicode="&#60308;" d="M800.162002 579.340967c1.850138 17.575284 17.596773 30.322609 35.172058 28.473495 17.575284-1.850138 30.322609-17.596773 28.473494-35.172058l-57.966202-550.673811c-5.143137-48.856731-46.341445-85.946464-95.467306-85.946464H313.625954c-49.126884 0-90.325192 37.089733-95.468329 85.946464L160.192446 572.641381c-1.850138 17.575284 10.898211 33.32192 28.472471 35.172057 17.575284 1.850138 33.32192-10.898211 35.172058-28.473494l57.965179-550.672788c1.714038-16.285918 15.446807-28.64848 31.822776-28.648481h396.74707c16.375969 0 30.108738 12.363585 31.822776 28.648481l57.967226 550.673811z m-192.176904-99.345636c17.672498 0 31.998785-14.326287 31.998785-31.998785v-223.989447c0-17.672498-14.326287-31.998785-31.998785-31.998785s-31.998785 14.326287-31.998785 31.998785V447.99757c0 17.671475 14.326287 31.997762 31.998785 31.997761z m-191.990662 0c17.672498 0 31.998785-14.326287 31.998785-31.998785v-223.989447c0-17.672498-14.326287-31.998785-31.998785-31.998785s-31.998785 14.326287-31.998785 31.998785V447.99757c0 17.671475 14.326287 31.997762 31.998785 31.997761z m-31.998785 223.989447h255.987209v47.998178c0 8.836249-7.163143 15.999392-15.999393 15.999392H399.995043c-8.836249 0-15.999392-7.163143-15.999392-15.999392v-47.998178z m-63.996546 0V767.981325c0 35.344996 28.652574 63.996546 63.997569 63.996546h255.987209c35.343973 0 63.996546-28.652574 63.996546-63.996546v-63.996547h223.99968c17.672498 0 31.998785-14.326287 31.998785-31.998785s-14.326287-31.998785-31.998785-31.998784H96.019891c-17.672498 0-31.998785 14.326287-31.998785 31.998784s14.326287 31.998785 31.998785 31.998785h223.979214z"  horiz-adv-x="1024" />

    
    <glyph glyph-name="icon_GPS" unicode="&#60309;" d="M512-47.979502c223.989447 224.729298 335.984171 399.577534 335.984171 524.546757 0 187.452299-150.424988 339.412246-335.984171 339.412247S176.015829 664.019555 176.015829 476.567255c0-124.9682 111.994724-299.81746 335.984171-524.546757z m45.327348-45.177945c-25.009603-25.092491-65.645093-25.092491-90.654696 0-235.249909 236.027621-354.653369 422.443311-354.653369 569.724702C112.019283 699.219241 290.950512 879.976048 512 879.976048s399.980717-180.756807 399.980717-403.408793c0-147.281391-119.40346-333.697081-354.653369-569.724702z m-45.327348 445.158662c70.688969 0 127.994116 57.305147 127.994116 127.994116s-57.305147 127.994116-127.994116 127.994116-127.994116-57.305147-127.994116-127.994116 57.305147-127.994116 127.994116-127.994116z m0-63.996546c-106.033965 0-191.990662 85.956697-191.990662 191.990662s85.956697 191.990662 191.990662 191.990662 191.990662-85.956697 191.990662-191.990662-85.957721-191.990662-191.990662-191.990662z"  horiz-adv-x="1024" />

    
    <glyph glyph-name="icon_horn" unicode="&#60310;" d="M702.383048 225.615737c40.534182 40.534182 65.605184 96.531544 65.605184 158.384263s-25.071002 117.850082-65.605184 158.384263c-12.496615 12.495592-12.496615 32.756031 0 45.252647 12.495592 12.496615 32.756031 12.496615 45.252647 0 52.114938-52.114938 84.349083-124.111692 84.349083-203.63691s-32.234145-151.521972-84.349083-203.63691c-12.495592-12.496615-32.756031-12.496615-45.252647 0-12.496615 12.496615-12.496615 32.757055 0 45.252647z m113.130594-113.131617C885.000226 181.970704 927.979086 277.966035 927.979086 384s-42.97886 202.029296-112.465444 271.51588c-12.495592 12.496615-12.495592 32.756031 0 45.252647 12.496615 12.496615 32.756031 12.496615 45.252646 0C941.834652 619.700163 991.976656 507.70544 991.976656 384s-50.142004-235.700163-131.209344-316.768527c-12.496615-12.496615-32.757055-12.496615-45.25367 0-12.495592 12.496615-12.495592 32.757055 0 45.252647zM312.24449 543.992901H112.019283c-8.836249 0-15.999392-7.163143-15.999392-15.999393v-287.985993c0-8.836249 7.163143-15.999392 15.999392-15.999393H312.245514c25.459858 0 49.875944-10.113335 67.87897-28.116361l163.874301-163.874301V735.983563L380.12346 572.109262a95.992261 95.992261 0 0 0-67.87897-28.116361z m41.371247 92.112907L498.746138 781.23621c40.316218 40.316218 109.249193 11.762905 109.249193-45.252647v-703.966103c0-57.015551-68.933999-85.568864-109.249193-45.252647L353.615737 131.894192a95.994308 95.994308 0 0 1-67.878971 28.116361H96.019891c-35.344996 0-63.996546 28.652574-63.996547 63.996546V543.992901c0 35.344996 28.652574 63.996546 63.996547 63.996546h189.716875a95.996354 95.996354 0 0 1 67.878971 28.116361z"  horiz-adv-x="1024" />

    
    <glyph glyph-name="icon_im_voice" unicode="&#60311;" d="M512 891.624343c-280.357246 0-507.624343-227.275283-507.624343-507.624343s227.267097-507.624343 507.624343-507.624343 507.624343 227.275283 507.624343 507.624343S792.356222 891.624343 512 891.624343z m0-983.5221c-262.832104 0-475.897757 213.069747-475.897757 475.897757S249.167896 859.897757 512 859.897757s475.897757-213.069747 475.897757-475.897757-213.065653-475.897757-475.897757-475.897757zM512 288.820244c69.944002 0 126.906342 56.915267 126.906342 127.107933V574.157921c0 70.191642-56.819077 127.107933-126.906342 127.107933-69.944002 0-126.906342-56.915267-126.906342-127.107933v-158.229744c0-70.191642 56.819077-127.107933 126.906342-127.107933zM718.221782 447.453171c-17.521049 0-31.726585-14.205537-31.726586-31.726586 0-96.371908-78.123288-174.49622-174.496219-174.496219S337.502757 319.353654 337.502757 415.726585c0 17.521049-14.205537 31.726585-31.726585 31.726586s-31.726585-14.205537-31.726586-31.726586c0-120.66315 89.804329-220.335221 206.222805-235.857752v-97.270371c0-17.521049 14.205537-31.726585 31.726586-31.726585s31.726585 14.205537 31.726585 31.726585v97.270371c116.418476 15.522532 206.222805 115.194602 206.222805 235.857752 0 17.521049-14.205537 31.726585-31.726585 31.726586z"  horiz-adv-x="1024" />

    
    <glyph glyph-name="icon_notice" unicode="&#60313;" d="M320.009338 495.994724c0-63.996546 0-94.871741-31.998785-191.990663-21.331841-65.37801-63.996546-129.375579-127.994116-191.990662h703.966103c-63.996546 63.996546-106.661252 127.994116-127.994116 191.990662-31.998785 95.995331-31.998785 127.994116-31.998785 191.990663 0 127.994116-31.998785 223.989447-191.990662 223.989447-154.75562 0-191.989639-95.995331-191.989639-223.989447z m282.523585-447.978895H421.467077c13.178137-37.284161 48.735981-63.996546 90.532923-63.996546s77.354785 26.712385 90.532923 63.996546z m3.220344 724.683961c114.993011-31.42164 162.233941-127.552048 162.233942-276.705066 0-89.716324 4.64888-99.556437 28.713972-171.752736 17.921161-53.764508 55.119365-109.561301 112.532982-166.975942 40.316218-40.316218 11.762905-109.249193-45.252646-109.249193H668.791999c-14.823614-73.028247-79.389118-127.994116-156.791999-127.994116S370.031615-25.011394 355.208001 48.015829H160.016437c-57.352219 0-85.751013 69.63087-44.756343 109.74038 57.057507 55.825446 94.02035 111.270223 111.967094 166.273955 15.731286 47.745421 25.325805 105.065917 28.78458 171.96456 0 146.069797 49.270147 243.450684 162.078399 275.986705 9.200546 43.417859 47.750537 75.996858 93.909833 75.996858 45.903469 0 84.282568-32.219819 93.753267-75.278497z"  horiz-adv-x="1024" />

    
    <glyph glyph-name="icon_phone" unicode="&#60314;" d="M594.366939 129.93456c-159.949922 44.407396-286.332331 171.396625-332.337107 334.574055-7.93574 33.57263 0.589424 58.139142 20.833491 76.930114 2.334161 2.166339 8.812713 7.6574 7.883551 6.846941 5.597485 4.881171 10.837836 9.142218 19.834744 16.252149 2.812045 2.220574 2.812045 2.220574 5.558599 4.393054 21.046339 16.672728 30.17116 25.720801 34.406624 34.540677 5.409197 11.263531-8.538467 51.386344-40.708144 92.706425-37.842887 48.608068-70.305229 71.802326-98.924033 71.802326-20.010753 0-40.808428-24.629957-69.484538-82.763982-15.160281-30.733978-16.61133-108.283192-8.523117-161.977091 5.968945-39.624463 27.458375-117.279077 46.62797-162.884764 78.380138-186.474019 248.529353-320.266188 449.951829-352.145246 98.261954-15.363919 197.22692-8.435113 225.184669 15.370059 27.800159 23.671119 41.494043 42.909276 41.494043 51.451836 0 23.763217-29.543873 70.203922-71.062476 103.345739-40.60479 32.412201-79.886445 46.413076-90.551342 41.162492-7.424086-3.65525-15.161305-10.838859-25.971511-24.202215-3.03001-3.746324-21.337981-27.621081-27.841092-35.579333-25.540699-32.458249-44.096311-39.199791-86.37216-29.823236z m36.237319 69.600171l0.445139 0.553609c5.430686 6.613628 23.953551 30.772864 27.774576 35.496446 16.142655 19.956517 29.889751 32.719192 47.458895 41.370223 39.706327 19.550265 100.614535-2.158153 158.744467-48.560996 55.264675-44.11473 95.134731-106.787118 95.134731-153.361877 0-32.958646-22.99062-65.260329-64.002686-100.17963-46.997384-40.016389-160.744008-47.980781-276.618085-29.862121-223.393883 35.356252-412.053684 183.703929-499.004011 390.5663-21.25714 50.572816-44.165896 133.357264-50.913577 178.150446-9.928117 65.907059-8.283664 153.812131 14.411221 199.821001C123.704416 793.946696 155.817812 831.978894 210.914664 831.978894c53.312206 0 100.621698-33.802874 149.422148-96.484471 45.666062-58.655911 66.9846-119.983675 47.899939-159.724795-9.901511-20.61962-23.690562-34.290991-52.357461-57.001225-2.832512-2.241041-2.832512-2.241041-5.615905-4.439102-8.232498-6.506181-12.850679-10.261715-17.455557-14.277168-0.048095-0.041956-5.324262-4.513804-6.405897-5.518691-4.00522-3.716648-4.495384-5.129834-2.434445-13.976316 39.618323-140.435473 149.21851-250.560616 285.85547-288.543695 16.519232-3.64604 10.199293-5.965875 20.781302 7.5213z"  horiz-adv-x="1024" />

    
    <glyph glyph-name="weibiaoti-" unicode="&#58961;" d="M943.962529 699.85324c0 35.871975-26.079625 64.449649-59.453552 65.249024l-20.483997 0.399688c-3.09758 0-74.741608 1.898517-149.982825 34.473068-79.837627 34.473068-130.198283 72.943013-132.296644 74.541764l-12.39032 9.492584c-10.291959 7.893833-22.282592 11.990632-34.772833 11.990632h-0.099922c-12.690086 0-24.78064-4.196721-35.272444-12.190476l-11.990632-9.29274c-5.69555-4.296643-55.956284-41.567525-132.596409-74.541764-74.541764-32.174863-148.983607-34.473068-149.583138-34.473068l-20.883685-0.399688c-32.674473-0.699454-59.253708-29.976581-59.253708-65.249024v-374.607338c0-101.720531 54.257611-215.131928 148.883685-311.056987 71.843872-72.943013 156.677596-124.502732 226.822794-137.992194l0.799376-0.199844 29.776737-2.997658 2.198282-0.099922h0.99922c36.671351 0 80.736924 13.389539 127.400468 38.969555 46.064012 25.180328 92.128025 60.552693 133.395785 102.419985 94.626073 95.925059 148.883685 209.436378 148.883684 311.056987l-0.099922 374.507416z m-180.558938-649.492584c-36.271663-37.870414-76.740047-69.745511-117.108509-92.427791-40.967994-23.081967-79.637783-35.172521-111.912568-35.172522h-0.899298l-1.998438 0.099922-26.179548 2.697893-0.699453 0.199844c-61.651835 12.090554-136.093677 58.654176-199.144419 124.502732-83.135051 86.632319-130.697892 188.952381-130.697892 280.680718V669.077283c0 31.775176 23.381733 58.254489 52.059329 58.854021l18.385636 0.399687c0.599532 0 65.948478 1.998439 131.397346 31.075723C443.953162 789.083528 488.018735 822.757221 493.014832 826.654176l10.491803 8.393443c9.192818 7.194379 19.884465 10.991413 30.975801 10.991413h0.099922c10.991413 0 21.583138-3.697112 30.576112-10.891491l10.891491-8.593287c1.898517-1.498829 46.064012-36.171741 116.209212-67.247462 66.0484-29.377049 128.999219-31.075722 131.697111-31.075723l17.985949-0.399687c29.277127-0.699454 52.159251-26.479313 52.15925-58.854021l0.199844-337.935987c-0.199844-91.728337-47.762685-194.0484-130.897736-280.680718zM507.203747 207.13817300000005c-9.79235-9.79235-25.580016-9.79235-35.372365 0L333.339578 345.53005499999995c-9.79235 9.79235-9.79235 25.580016 0 35.372365 9.79235 9.79235 25.580016 9.79235 35.372366 0l138.491803-138.491803c9.79235-9.79235 9.79235-25.580016 0-35.272444zM784.287276 519.594067c9.79235-9.79235 9.79235-25.580016 0-35.372365L507.203747 207.13817300000005c-9.79235-9.79235-25.580016-9.79235-35.372365 0-9.79235 9.79235-9.79235 25.580016 0 35.372366l277.083528 277.083528c9.79235 9.692428 25.679938 9.692428 35.372366 0z"  horiz-adv-x="1024" />

    
    <glyph glyph-name="zhihang" unicode="&#58964;" d="M751.742464 138.713491H302.225344c-13.785192 0-24.973173 11.187982-24.973173 24.973174s11.187982 24.973173 24.973173 24.973173h449.51712c13.785192 0 24.973173-11.187982 24.973173-24.973173s-11.187982-24.973173-24.973173-24.973174zM751.742464 612.204858H302.225344c-13.785192 0-24.973173 11.187982-24.973173 24.973173s11.187982 24.973173 24.973173 24.973174h449.51712c13.785192 0 24.973173-11.187982 24.973173-24.973174s-11.187982-24.973173-24.973173-24.973173zM520.990342-76.954834H177.359477c-14.384548 0-26.071993 12.087016-26.071993 27.07092V818.982733c0 14.983904 11.687445 27.07092 26.071993 27.07092h687.061945c14.384548 0 26.071993-12.087016 26.071993-27.07092v-523.437713h49.946347V866.032192c0 16.582187-13.285728 29.967808-29.568237 29.967808H130.909375c-16.382402 0-29.568237-13.385621-29.568238-29.967808v-962.965564c0-16.582187 13.285728-29.967808 29.568238-29.967808H520.990342v49.946346zM915.566481 291.549312m-24.973173 0a24.973173 24.973173 0 1 1 49.946347 0 24.973173 24.973173 0 1 1-49.946347 0ZM525.984977-103.026827m-24.973173 0a24.973173 24.973173 0 1 1 49.946346 0 24.973173 24.973173 0 1 1-49.946346 0ZM735.659741-122.306116l-108.183787 71.822846c-11.48766 7.591845-14.584333 23.175105-6.992489 34.662765 7.591845 11.48766 23.175105 14.584333 34.662765 6.992488l108.183787-71.822846c11.48766-7.591845 14.584333-23.175105 6.992488-34.662765-7.691737-11.48766-23.175105-14.584333-34.662764-6.992488zM728.667252-87.643352l165.721978 249.731734c7.591845 11.48766 23.175105 14.584333 34.662765 6.992488 11.48766-7.591845 14.584333-23.175105 6.992488-34.662764l-165.721978-249.731734c-7.591845-11.48766-23.175105-14.584333-34.662764-6.992488-11.48766 7.691737-14.684226 23.175105-6.992489 34.662764zM745.748903 375.459175H296.231782c-13.785192 0-24.973173 11.187982-24.973173 24.973173s11.187982 24.973173 24.973173 24.973173h449.517121c13.785192 0 24.973173-11.187982 24.973173-24.973173s-11.187982-24.973173-24.973173-24.973173z"  horiz-adv-x="1024" />

    
    <glyph glyph-name="baocun" unicode="&#58965;" d="M894.863499 895.10079H114.849058c-16.385599 0-29.574007-13.388233-29.574007-29.973656v-963.153478c0-16.585423 13.288321-29.973656 29.574007-29.973656h780.014441c16.385599 0 29.574007 13.388233 29.574007 29.973656v963.153478c0 16.585423-13.188409 29.973656-29.574007 29.973656z m-20.382086-946.068494c0-14.986828-11.689726-27.076203-26.077081-27.076203H161.308225c-14.387355 0-26.077081 12.089375-26.07708 27.076203V818.068494c0 14.986828 11.689726 27.076203 26.07708 27.076203h687.196019c14.387355 0 26.077081-12.089375 26.077081-27.076203v-869.036198zM729.608742 59.734999h-449.604839c-13.787882 0-24.978047 11.190165-24.978047 24.978046s11.190165 24.978047 24.978047 24.978047h449.604839c13.787882 0 24.978047-11.190165 24.978047-24.978047s-11.090253-24.978047-24.978047-24.978046zM729.608742 263.555859h-449.604839c-13.787882 0-24.978047 11.190165-24.978047 24.978047s11.190165 24.978047 24.978047 24.978046h449.604839c13.787882 0 24.978047-11.190165 24.978047-24.978046s-11.090253-24.978047-24.978047-24.978047zM255.025856 895.500439v-259.771685c0-27.575763 22.38033-49.956093 49.956093-49.956093h399.648747c27.575763 0 49.956093 22.38033 49.956093 49.956093V895.500439h-499.560933z m449.60484-235.293199c0-13.787882-11.190165-24.978047-24.978047-24.978047h-349.692653c-13.787882 0-24.978047 11.190165-24.978047 24.978047V845.044785h399.648747v-184.837545z"  horiz-adv-x="1024" />

    
    <glyph glyph-name="zhongzhi" unicode="&#58967;" d="M300.153441 631.329234L45.877599 540.873402c-14.792777-5.297413-31.084822 2.49878-36.382235 17.291557-5.297413 14.792777 2.49878 31.084822 17.291556 36.382235l254.275842 90.455832c14.792777 5.297413 31.084822-2.49878 36.382236-17.291557 5.297413-14.792777-2.49878-31.184773-17.291557-36.382235zM113.244705 828.033187L64.36857 562.562811c-2.798633-15.392484-17.791313-25.687457-33.183797-22.888824-15.392484 2.798633-25.687457 17.791313-22.888824 33.183797L57.172084 838.32816C59.970717 853.720644 74.963397 864.015617 90.355881 861.117033c15.392484-2.798633 25.687457-17.691362 22.888824-33.083846zM84.958516 151.363592m-24.987799 0a24.987799 24.987799 0 1 1 49.975598 0 24.987799 24.987799 0 1 1-49.975598 0ZM512.749634 895.500244C308.649292 895.500244 132.435334 775.958614 50.275451 603.142997h56.072621C184.409956 747.472523 337.135383 845.524646 512.749634 845.524646c255.075451 0 461.774524-206.699073 461.774524-461.774524s-206.699073-461.774524-461.774524-461.774524c-175.614251 0-328.339678 98.052123-406.401562 242.381649H68.966325v-20.989751h-2.998536v-2.998536h-3.39834c86.557735-159.821962 255.675159-268.36896 450.180185-268.36896 282.661981 0 511.750122 229.088141 511.750122 511.750122S795.411615 895.500244 512.749634 895.500244z"  horiz-adv-x="1025" />

    
    <glyph glyph-name="shanchu" unicode="&#58968;" d="M1000 654H26c-13.8 0-25 11.2-25 25s11.2 25 25 25h974c13.8 0 25-11.2 25-25s-11.2-25-25-25zM855.7 702.6h-684c-27.6 0-50-22.4-50-50v-730c0-27.6 22.4-50 50-50h684c27.6 0 50 22.4 50 50v730c0 27.6-22.4 50-50 50z m0-755c0-13.8-11.2-25-25-25h-634c-13.8 0-25 11.2-25 25v705h684v-705zM788.7 784H237.4c-13.8 0-25 11.2-25 25s11.2 25 25 25h551.3c13.8 0 25-11.2 25-25s-11.2-25-25-25zM452.2 448.6v-322c0-13.8-11.2-25-25-25s-25 11.2-25 25v322c0 13.8 11.2 25 25 25s25-11.2 25-25zM625.2 448.6v-322c0-13.8-11.2-25-25-25s-25 11.2-25 25v322c0 13.8 11.2 25 25 25s25-11.2 25-25z"  horiz-adv-x="1025" />

    
    <glyph glyph-name="sousuo" unicode="&#58969;" d="M501.6 871.7C262.1 899.8 45.3 728.4 17.3 489s143.3-456.3 382.8-484.3S856.3 148 884.4 387.4 741 843.7 501.6 871.7z m-95.4-814.2C196 82.1 45.5 272.5 70.1 482.8s215 360.7 425.3 336.1 360.7-215 336.1-425.3-215-360.7-425.3-336.1zM1005.2-16l-220 181.9c-10.6 8.8-26.4 7.3-35.2-3.3l-2.1-2.5c-8.8-10.6-7.3-26.4 3.3-35.2l220-181.9c10.6-8.8 26.4-7.3 35.2 3.3l2.1 2.5c8.9 10.6 7.4 26.4-3.3 35.2z"  horiz-adv-x="1024" />

    
    <glyph glyph-name="fanhui" unicode="&#58970;" d="M511.002727 893.207635C228.973899 893.207635 0.398909 664.632645 0.398909 382.60381800000005s228.57499-510.603818 510.603818-510.603818 510.603818 228.57499 510.603818 510.603818-228.57499 510.603818-510.603818 510.603817z m0-971.343981c-254.50409 0-460.740164 206.236073-460.740164 460.740164s206.236073 460.740164 460.740164 460.740163 460.740164-206.236073 460.740164-460.740163-206.236073-460.740164-460.740164-460.740164zM753.53954 357.67199100000005h-544.511102c-13.762369 0-24.931827 11.169459-24.931827 24.931827s11.169459 24.931827 24.931827 24.931827h544.511102c13.762369 0 24.931827-11.169459 24.931827-24.931827s-11.169459-24.931827-24.931827-24.931827zM829.033113 363.05726500000003l-198.557071-166.544604c-10.571095-8.87573-26.228282-7.479548-35.104012 3.091546-8.87573 10.571095-7.479548 26.228282 3.091546 35.104013L797.020647 401.352552c10.571095 8.87573 26.228282 7.479548 35.104012-3.091547 8.87573-10.571095 7.479548-26.328009-3.091546-35.20374zM829.033113 402.250097l-198.557071 166.544605c-10.571095 8.87573-26.228282 7.479548-35.104012-3.091547-8.87573-10.571095-7.479548-26.228282 3.091546-35.104012l198.557071-166.644332c10.571095-8.87573 26.228282-7.479548 35.104012 3.091547 8.87573 10.571095 7.479548 26.328009-3.091546 35.203739z"  horiz-adv-x="1024" />

    
    <glyph glyph-name="cuowu" unicode="&#58971;" d="M875.086452 742.269942C676.053818 941.302575 353.260522 941.302575 154.128323 742.269942s-199.032634-521.825929 0-720.958129 521.825929-199.032634 720.958129 0 199.032634 521.825929 0 720.958129zM725.836868 170.561396c-9.757478-9.757478-25.488922-9.757478-35.246399 0L514.557604 346.594261 338.624306 170.561396c-9.757478-9.757478-25.488922-9.757478-35.2464 0s-9.757478 25.488922 0 35.2464l176.032865 176.032864-176.032865 175.933299c-9.757478 9.757478-9.757478 25.488922 0 35.246399 9.757478 9.757478 25.488922 9.757478 35.2464 0l176.032864-176.032865 176.032865 176.032865c9.757478 9.757478 25.488922 9.757478 35.246399 0 9.757478-9.757478 9.757478-25.488922 0-35.246399L549.804004 381.84066 725.836868 205.807796c9.657912-9.757478 9.657912-25.488922 0-35.2464z"  horiz-adv-x="1028" />

    
    <glyph glyph-name="zhengque" unicode="&#58972;" d="M513.099356 895.400351c-282.634394 0-511.700176-229.065782-511.700176-511.700175s229.065782-511.700176 511.700176-511.700176 511.700176 229.065782 511.700176 511.700176S795.73375 895.400351 513.099356 895.400351z m225.567831-399.865703L461.429631 218.397033c-9.794261-9.794261-25.585009-9.794261-35.37927 0L287.631466 356.91587c-9.794261 9.794261-9.794261 25.585009 0 35.37927 9.794261 9.794261 25.585009 9.794261 35.37927 0l120.829202-120.929144 259.547921 259.547922c9.794261 9.794261 25.585009 9.794261 35.37927 0 9.69432-9.794261 9.69432-25.585009-0.099942-35.37927z"  horiz-adv-x="1025" />

    
    <glyph glyph-name="jingshi" unicode="&#58974;" d="M878.815746 744.39056C679.198314 943.908184 355.618456 943.908184 156.100832 744.39056S-43.416792 221.293078 156.100832 21.675646s523.097482-199.517624 722.714914 0 199.517624 523.097482 0 722.714914z m-385.361453-48.507036c27.547206 0 49.904358-22.357152 49.904358-49.904358s-22.357152-49.904358-49.904358-49.904358-49.904358 22.357152-49.904358 49.904358 22.357152 49.904358 49.904358 49.904358z m148.714987-600.848472c0-13.773603-11.178576-24.952179-24.952179-24.952179h-199.617432c-13.773603 0-24.952179 11.178576-24.952179 24.952179s11.178576 24.952179 24.952179 24.95218H492.056971v395.242516h-74.457302c-13.773603 0-24.952179 11.178576-24.952179 24.952179s11.178576 24.952179 24.952179 24.952179h99.808716c13.773603 0 24.952179-11.178576 24.952179-24.952179v-420.194695h74.856537c13.773603 0 24.952179-11.178576 24.952179-24.95218z"  horiz-adv-x="1030" />

    
    <glyph glyph-name="xitongpeizhi" unicode="&#58975;" d="M214 209c-55.2 0-100-44.8-100-100s44.8-100 100-100 100 44.8 100 100-44.8 100-100 100z m0-150c-27.6 0-50 22.4-50 50s22.4 50 50 50 50-22.4 50-50-22.4-50-50-50zM239 167V871c0 13.8-11.2 25-25 25s-25-11.2-25-25v-704h50zM189 50v-153c0-13.8 11.2-25 25-25s25 11.2 25 25V50h-50zM517 452c-55.2 0-100-44.8-100-100s44.8-100 100-100 100 44.8 100 100-44.8 100-100 100z m0-150c-27.6 0-50 22.4-50 50s22.4 50 50 50 50-22.4 50-50-22.4-50-50-50zM542 430V871c0 13.8-11.2 25-25 25s-25-11.2-25-25v-441h50zM492 279v-382c0-13.8 11.2-25 25-25s25 11.2 25 25V279h-50zM910 659c0 55.2-44.8 100-100 100s-100-44.8-100-100 44.8-100 100-100 100 44.8 100 100z m-50 0c0-27.6-22.4-50-50-50s-50 22.4-50 50 22.4 50 50 50 50-22.4 50-50zM835 601v-704c0-13.8-11.2-25-25-25s-25 11.2-25 25V601h50zM785 718V871c0 13.8 11.2 25 25 25s25-11.2 25-25v-153h-50z"  horiz-adv-x="1024" />

    
    <glyph glyph-name="shujuchaxun" unicode="&#58976;" d="M477-78H108.8c-13.8 0-25 11.2-25 25V821c0 13.8 11.2 25 25 25h750c13.8 0 25-11.2 25-25v-469h50V846c0 27.6-22.4 50-50 50h-800c-27.6 0-50-22.4-50-50v-924c0-27.6 22.4-50 50-50H477v50zM909 354m-25 0a25 25 0 1 1 50 0 25 25 0 1 1-50 0ZM482-103m-25 0a25 25 0 1 1 50 0 25 25 0 1 1-50 0ZM767 647H169c-13.7 0-25 11.2-25 25 0 13.7 11.2 25 25 25h598c13.8 0 25-11.2 25-25s-11.2-25-25-25zM767 385.5H169c-13.7 0-25 11.3-25 25s11.2 25 25 25h598c13.8 0 25-11.3 25-25 0-13.8-11.2-25-25-25zM474 124H184c-13.7 0-25 11.3-25 25 0 13.8 11.2 25 25 25h290c13.7 0 25-11.3 25-25 0-13.8-11.2-25-25-25zM895.8-118.9l-97.5 110.8c-9.1 10.3-8.1 26.2 2.2 35.3 10.3 9.1 26.2 8.1 35.3-2.2l97.5-110.8c9.1-10.3 8.1-26.2-2.2-35.3-10.3-9.1-26.2-8.1-35.3 2.2zM795.7 295.3C708 336 604 297.9 563.3 210.2c-40.7-87.7-2.6-191.7 85.1-232.4 87.7-40.7 191.7-2.6 232.4 85.1 40.7 87.7 2.6 191.8-85.1 232.4zM669.5 23.2c-62.6 29-89.8 103.4-60.8 166S712 279 774.7 250c62.6-29 89.8-103.4 60.8-166-29.1-62.6-103.4-89.9-166-60.8z"  horiz-adv-x="1024" />

    
    <glyph glyph-name="baobiaoshuchu" unicode="&#58977;" d="M471.539512-102.52487799999994m-25.475122 0a25.475122 25.475122 0 1 1 50.950244 0 25.475122 25.475122 0 1 1-50.950244 0ZM913.108293 353.03024400000004m-25.475122 0a25.475122 25.475122 0 1 1 50.950244 0 25.475122 25.475122 0 1 1-50.950244 0ZM888.632195 896H313.194146l-41.959024-49.95122h592.421463c13.786537 0 24.97561-11.189073 24.97561-24.975609v-472.538537h49.95122V846.04878c0 27.573073-22.378146 49.95122-49.95122 49.95122zM39.461463-43.08292700000004c0-61.539902 22.378146-83.918049 49.95122-83.918049h380.628293v49.95122H114.388293c-13.786537 0-24.97561 11.189073-24.97561 24.97561V642.247805l-47.953171-19.980488M173.330732 755.637073L313.194146 896v-273.732683H39.461463zM579.933659 302.579512H261.244878c-13.786537 0-24.97561 11.189073-24.97561 24.97561s11.189073 24.97561 24.97561 24.97561h318.688781c13.786537 0 24.97561-11.189073 24.975609-24.97561s-11.189073-24.97561-24.975609-24.97561zM705.810732 513.373659H261.244878c-13.786537 0-24.97561 11.189073-24.97561 24.975609s11.189073 24.97561 24.97561 24.97561h444.565854c13.786537 0 24.97561-11.189073 24.975609-24.97561s-11.189073-24.97561-24.975609-24.975609zM751.266341 274.60682899999995c-110.392195 0-199.804878-89.412683-199.804878-199.804878s89.412683-199.804878 199.804878-199.804878 199.804878 89.412683 199.804879 199.804878-89.412683 199.804878-199.804879 199.804878z m0-349.658536c-82.71922 0-149.853659 67.134439-149.853658 149.853658s67.134439 149.853659 149.853658 149.853659 149.853659-67.134439 149.853659-149.853659-67.134439-149.853659-149.853659-149.853658zM845.674146 36.839023999999995H655.859512c-13.786537 0-24.97561 11.189073-24.97561 24.97561s11.189073 24.97561 24.97561 24.97561h189.814634c13.786537 0 24.97561-11.189073 24.97561-24.97561s-11.189073-24.97561-24.97561-24.97561zM829.090341 48.827316999999994L750.766829 109.26829299999997c-10.889366 8.391805-12.887415 24.076488-4.495609 35.065756 8.391805 10.889366 24.076488 12.887415 35.065756 4.49561l78.323512-60.440976c10.889366-8.391805 12.887415-24.076488 4.49561-35.065756-8.491707-10.989268-24.17639-12.987317-35.065757-4.49561zM862.457756 44.63141499999995L786.931512-15.110243999999966c-10.789463-8.59161-26.574049-6.693463-35.065756 4.096l-0.199805 0.199805c-8.59161 10.789463-6.693463 26.574049 4.096 35.065756l75.626147 59.741659c10.789463 8.59161 26.574049 6.693463 35.065756-4.096l0.199805-0.199805c8.491707-10.789463 6.693463-26.474146-4.195903-35.065756z"  horiz-adv-x="1024" />

    
    <glyph glyph-name="-" unicode="&#58910;" d="M512 896C230.4 896 0 665.6 0 384s230.4-512 512-512 512 230.4 512 512S793.6 896 512 896z m292.571429-585.142857H219.428571v146.285714h585.142858v-146.285714z"  horiz-adv-x="1024" />

    
    <glyph glyph-name="-1" unicode="&#58911;" d="M512 896C230.4 896 0 665.6 0 384s230.4-512 512-512 512 230.4 512 512S793.6 896 512 896z m-73.142857-797.257143l-270.628572 270.628572 102.4 102.4 168.228572-168.228572 314.514286 314.514286 102.4-102.4L438.857143 98.742857z"  horiz-adv-x="1024" />

    
    <glyph glyph-name="-2" unicode="&#58912;" d="M512 896C230.4 896 0 665.6 0 384s230.4-512 512-512 512 230.4 512 512S793.6 896 512 896z m292.571429-585.142857h-219.428572v-219.428572h-146.285714v219.428572H219.428571v146.285714h219.428572V676.571429h146.285714v-219.428572h219.428572v-146.285714z"  horiz-adv-x="1024" />

    
    <glyph glyph-name="-3" unicode="&#58913;" d="M1024 676.571429H0v-146.285715h146.285714v-585.142857c0-40.228571 32.914286-73.142857 73.142857-73.142857h585.142858c40.228571 0 73.142857 32.914286 73.142857 73.142857V530.285714h146.285714V676.571429zM365.714286 18.285714H292.571429V530.285714h73.142857v-512z m182.857143 0h-73.142858V530.285714h73.142858v-512z m182.857142 0h-73.142857V530.285714h73.142857v-512z m0 731.428572H292.571429V896h438.857142v-146.285714z"  horiz-adv-x="1024" />

    
    <glyph glyph-name="-4" unicode="&#58914;" d="M658.285714 683.885714l153.6-153.6-658.285714-658.285714H0v153.6l658.285714 658.285714z m343.771429 87.771429L899.657143 874.057143c-14.628571 14.628571-36.571429 14.628571-51.2 0l-120.685714-120.685714 153.6-153.6 120.685714 120.685714c14.628571 14.628571 14.628571 36.571429 0 51.2z"  horiz-adv-x="1024" />

    
    <glyph glyph-name="-5" unicode="&#58915;" d="M512 676.571429V896L219.428571 603.428571l292.571429-292.571428v219.428571c142.628571 0 256-113.371429 256-256s-113.371429-256-256-256-256 113.371429-256 256H109.714286c0-223.085714 179.2-402.285714 402.285714-402.285714s402.285714 179.2 402.285714 402.285714S735.085714 676.571429 512 676.571429z"  horiz-adv-x="1024" />

    
    <glyph glyph-name="-6" unicode="&#58916;" d="M872.768683 327.516014c3.644128 18.220641 3.644128 36.441281 3.644128 58.30605s-3.644128 36.441281-3.644128 58.30605l112.967972 83.814946c14.576512 10.932384 18.220641 32.797153 10.932384 47.373666l-76.52669 134.83274c-10.932384 14.576512-29.153025 21.864769-47.373666 14.576513l-127.544484-54.661922c-29.153025 25.508897-61.950178 43.729537-98.391459 58.30605L628.6121 866.846975c-7.288256 14.576512-21.864769 29.153025-40.08541 29.153025h-153.05338c-18.220641 0-32.797153-14.576512-36.441282-32.797153l-18.22064-138.476868c-36.441281-14.576512-69.238434-32.797153-98.391459-58.30605L154.875445 724.725979c-18.220641 7.288256-36.441281 0-47.373666-14.576513L30.975089 575.316726c-10.932384-14.576512-3.644128-36.441281 10.932384-47.373666l112.967972-83.814946C151.231317 422.263345 147.587189 404.042705 147.587189 385.822064s3.644128-36.441281 3.644128-58.30605L38.263345 243.701068c-14.576512-10.932384-18.220641-32.797153-10.932384-47.373666l76.52669-134.83274c10.932384-14.576512 29.153025-21.864769 47.373666-14.576513l127.544484 54.661922c29.153025-25.508897 61.950178-43.729537 98.391459-58.30605l18.22064-138.476868c3.644128-18.220641 18.220641-32.797153 36.441281-32.797153H584.882562c18.220641 0 32.797153 14.576512 36.441281 32.797153l18.220641 138.476868c36.441281 14.576512 69.238434 32.797153 98.391459 58.30605l127.544484-54.661922c18.220641-7.288256 36.441281 0 47.373666 14.576513l76.52669 134.83274c10.932384 14.576512 3.644128 36.441281-10.932384 47.373666l-105.679716 83.814946zM512 203.615658c-102.035587 0-182.206406 80.170819-182.206406 182.206406s80.170819 182.206406 182.206406 182.206406 182.206406-80.170819 182.206406-182.206406-80.170819-182.206406-182.206406-182.206406z"  horiz-adv-x="1024" />

    
    <glyph glyph-name="-7" unicode="&#58917;" d="M808.228571 384l-475.428571-479.085714-80.457143 80.457143 402.285714 398.628571-402.285714 398.628571L332.8 863.085714z"  horiz-adv-x="1024" />

    
    </font>
</defs>
</svg>
