<?xml version="1.0" standalone="no"?>
<!DOCTYPE svg PUBLIC "-//W3C//DTD SVG 1.1//EN" "http://www.w3.org/Graphics/SVG/1.1/DTD/svg11.dtd" >
<!--
2013-9-30: Created.
-->
<svg>
<metadata>
Created by iconfont
</metadata>
<defs>

<font id="iconfont" horiz-adv-x="1024" >
  <font-face
    font-family="iconfont"
    font-weight="500"
    font-stretch="normal"
    units-per-em="1024"
    ascent="896"
    descent="-128"
  />
    <missing-glyph />
    
    <glyph glyph-name="x" unicode="x" horiz-adv-x="1001"
d="M281 543q-27 -1 -53 -1h-83q-18 0 -36.5 -6t-32.5 -18.5t-23 -32t-9 -45.5v-76h912v41q0 16 -0.5 30t-0.5 18q0 13 -5 29t-17 29.5t-31.5 22.5t-49.5 9h-133v-97h-438v97zM955 310v-52q0 -23 0.5 -52t0.5 -58t-10.5 -47.5t-26 -30t-33 -16t-31.5 -4.5q-14 -1 -29.5 -0.5
t-29.5 0.5h-32l-45 128h-439l-44 -128h-29h-34q-20 0 -45 1q-25 0 -41 9.5t-25.5 23t-13.5 29.5t-4 30v167h911zM163 247q-12 0 -21 -8.5t-9 -21.5t9 -21.5t21 -8.5q13 0 22 8.5t9 21.5t-9 21.5t-22 8.5zM316 123q-8 -26 -14 -48q-5 -19 -10.5 -37t-7.5 -25t-3 -15t1 -14.5
t9.5 -10.5t21.5 -4h37h67h81h80h64h36q23 0 34 12t2 38q-5 13 -9.5 30.5t-9.5 34.5q-5 19 -11 39h-368zM336 498v228q0 11 2.5 23t10 21.5t20.5 15.5t34 6h188q31 0 51.5 -14.5t20.5 -52.5v-227h-327z" />
    

    
    <glyph glyph-name="upload" unicode="&#59374;" d="M546.443364 882.023649A47.689428 47.689428 0 0 1 512.720297 896c-12.637659 0-24.775805-5.027091-33.719072-13.976351L215.553499 618.5519449999999c-18.630806-18.630806-18.630806-48.817327 0-67.45013 18.630806-18.629807 48.818326-18.629807 67.449131 0l182.022244 182.052214v-584.293401c0-26.331286 21.364137-47.695422 47.695423-47.695422 26.333284 0 47.695422 21.36114 47.695422 47.695422V733.159024l182.058209-182.057209c18.629807-18.629807 48.812332-18.629807 67.444136 0 18.630806 18.631805 18.630806 48.818326 0 67.45013L546.443364 882.023649zM931.211614 268.88741500000003v-263.925261c0-24.33024-19.656804-43.987044-43.988043-43.987044H136.278915c-24.33024 0-43.987044 19.656804-43.987044 43.987044V268.88741500000003c0 24.332238-19.656804 43.988043-43.987044 43.988043-24.33024 0-43.988043-19.655805-43.988043-43.988043v-307.912305c0-48.522615 39.451473-87.976086 87.975087-87.976086h838.920742c48.524613 0 87.976086 39.452472 87.976086 87.976086V268.88741500000003c0 24.332238-19.658802 43.988043-43.988043 43.988043-24.331239 0-43.989042-19.655805-43.989042-43.988043z"  horiz-adv-x="1024" />

    
    <glyph glyph-name="loading" unicode="&#58950;" d="M814.161762 173.760115c0-2.759851 2.510165-5.268993 5.265923-5.268993s5.2649 2.509142 5.2649 5.268993c0 2.755758-2.506072 5.270016-5.2649 5.270016C816.673974 179.031155 814.161762 176.516897 814.161762 173.760115M697.949203 53.731654c0-2.749618 1.129728-5.474677 3.067866-7.413839 1.937115-1.940185 4.66115-3.069912 7.400536-3.069912 2.746548 0 5.468537 1.129728 7.404629 3.069912s3.067866 4.666267 3.067866 7.413839c0 2.743478-1.130751 5.469561-3.067866 7.405652-1.937115 1.940185-4.66115 3.070936-7.404629 3.070936-2.742455 0-5.464444-1.129728-7.400536-3.070936C699.077907 59.201215 697.949203 56.475133 697.949203 53.731654M541.301803-8.05238c0-4.121869 1.692545-8.222249 4.606915-11.137642 2.912324-2.916417 7.007587-4.613055 11.126386-4.613055 4.114706 0 8.209969 1.696638 11.124339 4.613055 2.91437 2.915394 4.608962 7.013727 4.608962 11.137642 0 4.119823-1.694592 8.219179-4.608962 11.135596-2.91437 2.91744-7.009633 4.614078-11.124339 4.614078-4.118799 0-8.214062-1.696638-11.126386-4.614078C542.994348 0.166799 541.301803-3.931535 541.301803-8.05238M372.673558 0.225127c0-5.48491 2.259456-10.937075 6.133685-14.819491 3.87423-3.878323 9.324347-6.135732 14.808234-6.135732 5.480817 0 10.931958 2.257409 14.806188 6.135732 3.879346 3.882416 6.134708 9.33458 6.134708 14.819491 0 5.492073-2.255362 10.942191-6.134708 14.826654-3.87423 3.877299-9.324347 6.134708-14.806188 6.134708-5.482864 0-10.934005-2.257409-14.808234-6.134708C374.933014 11.167318 372.673558 5.7172 372.673558 0.225127M223.080817 77.065036c0-6.870464 2.824319-13.694879 7.674781-18.550458 4.850462-4.853532 11.669761-7.681944 18.533062-7.681944 6.856138 0 13.675437 2.828413 18.525898 7.681944 4.850462 4.855578 7.674781 11.679994 7.674781 18.550458 0 6.865348-2.824319 13.690786-7.674781 18.544318-4.850462 4.854555-11.669761 7.682968-18.525898 7.682968-6.863301 0-13.6826-2.828413-18.533062-7.682968C225.904113 90.755822 223.080817 83.930383 223.080817 77.065036M119.476388 207.691858c0-8.248855 3.390207-16.441428 9.214854-22.274262 5.826694-5.830787 14.018244-9.22918 22.252772-9.22918 8.240668 0 16.427102 3.39737 22.252772 9.22918 5.824647 5.830787 9.218947 14.025407 9.218947 22.274262 0 8.242715-3.393277 16.437335-9.218947 22.269145-5.825671 5.830787-14.012104 9.22918-22.252772 9.22918-8.234529 0-16.426078-3.396346-22.252772-9.22918C122.865571 224.129192 119.476388 215.934572 119.476388 207.691858M80.602087 368.079434c0-9.613943 3.955071-19.16444 10.742647-25.96225 6.787576-6.792693 16.329888-10.74674 25.933597-10.74674s19.144997 3.954047 25.933597 10.74674c6.787576 6.799856 10.742647 16.350354 10.742647 25.96225 0 9.609849-3.955071 19.160347-10.742647 25.958156-6.7886 6.79474-16.329888 10.748787-25.933597 10.748787s-19.146021-3.954047-25.933597-10.748787C84.55818 387.238758 80.602087 377.68826 80.602087 368.079434M112.591598 527.425287c0-10.990287 4.518911-21.916105 12.287836-29.686053 7.762785-7.770972 18.672231-12.293976 29.653308-12.293976s21.891546 4.523004 29.654331 12.293976c7.767902 7.769948 12.286813 18.695767 12.286813 29.686053 0 10.986193-4.518911 21.910989-12.286813 29.680937-7.762785 7.771995-18.673254 12.294999-29.654331 12.294999s-21.890522-4.523004-29.653308-12.294999C117.110509 549.337299 112.591598 538.41148 112.591598 527.425287M208.560131 655.90624c0-12.367654 5.089915-24.65856 13.827909-33.405764 8.739017-8.746181 21.021737-13.839165 33.378135-13.839165 12.357421 0 24.635024 5.095031 33.373018 13.839165 8.740041 8.747204 13.827909 21.03811 13.827909 33.405764 0 12.370724-5.087868 24.6647-13.827909 33.409857-8.737994 8.747204-21.015597 13.839165-33.373018 13.839165-12.356398 0-24.639117-5.092985-33.378135-13.839165C213.650046 680.569916 208.560131 668.276964 208.560131 655.90624M349.477299 729.503298c0-13.733765 5.648639-27.385666 15.348539-37.093752 9.703993-9.714226 23.338498-15.364912 37.059983-15.364912s27.357013 5.649662 37.05896 15.364912c9.705017 9.708087 15.354679 23.359987 15.354679 37.093752 0 13.734788-5.649662 27.379526-15.354679 37.094776-9.700923 9.708087-23.337475 15.363889-37.05896 15.363889s-27.354967-5.654779-37.059983-15.363889C355.125938 756.8818 349.477299 743.237063 349.477299 729.503298M507.749706 734.073374c0-15.112156 6.21248-30.131191 16.890658-40.817556 10.675109-10.686365 25.680841-16.911124 40.778671-16.911124 15.103969 0 30.109701 6.224759 40.783787 16.911124 10.675109 10.685342 16.890658 25.7054 16.890658 40.817556 0 15.113179-6.213503 30.132214-16.890658 40.822673-10.677156 10.686365-25.680841 16.906008-40.783787 16.906008-15.097829 0-30.103562-6.219643-40.778671-16.906008C513.962186 764.207635 507.749706 749.186553 507.749706 734.073374M652.653668 668.817268c0-16.477243 6.77939-32.852157 18.417428-44.500428 11.642131-11.655434 28.002718-18.435848 44.465635-18.435848 16.460871 0 32.821457 6.780413 44.459496 18.435848 11.642131 11.648271 18.417428 28.024208 18.417428 44.500428 0 16.478267-6.775297 32.85318-18.417428 44.507591-11.638038 11.649294-27.998625 18.434824-44.459496 18.434824-16.462917 0-32.823504-6.78553-44.465635-18.434824C659.433058 701.670448 652.653668 685.295535 652.653668 668.817268M755.621601 546.241804c0-17.856657 7.345277-35.601775 19.958524-48.232418 12.61734-12.625527 30.347108-19.97592 48.187393-19.97592s35.572099 7.351417 48.185346 19.97592c12.613247 12.630643 19.956478 30.37576 19.956478 48.232418 0 17.858704-7.343231 35.604845-19.956478 48.230371-12.613247 12.62962-30.345061 19.980014-48.185346 19.980014s-35.570052-7.351417-48.187393-19.980014C762.966879 581.846648 755.621601 564.099484 755.621601 546.241804M796.580373 387.472071c0-19.233002 7.909118-38.352416 21.501667-51.954175 13.590502-13.602782 32.687405-21.523156 51.90915-21.523156 19.214582 0 38.315577 7.920374 51.905057 21.523156 13.590502 13.600735 21.501667 32.721174 21.501667 51.954175 0 19.239141-7.910141 38.357533-21.501667 51.959292-13.588456 13.601759-32.689451 21.517016-51.905057 21.517016-19.220722 0-38.317624-7.915258-51.90915-21.517016C804.488468 425.830627 796.580373 406.712236 796.580373 387.472071"  horiz-adv-x="1024" />

    
    <glyph glyph-name="minus-font" unicode="&#58881;" d="M970.74 330.304H54.264C24.842 330.304 1 354.13 1 383.549c0 29.419 23.842 53.248 53.264 53.248H970.74c29.42 0 53.26-23.829 53.26-53.248s-23.84-53.245-53.26-53.245z"  horiz-adv-x="1024" />

    
    <glyph glyph-name="email" unicode="&#58885;" d="M1024.512 584.249v197.659c0 26.512-21.51 48.023-48.023 48.023h-928.442c-26.512 0-48.023-21.51-48.023-48.023v-197.66c-0.023-0.874-0.025-1.748 0-2.62v-595.537c0-26.512 21.51-48.023 48.023-48.023h928.442c26.512 0 48.023 21.51 48.023 48.023v595.537c0.025 0.872 0.023 1.746 0 2.621zM928.466 733.885v-123.066l-416.198-237.793-416.198 237.793v123.066h832.396zM96.070 34.115v466.063l392.374-224.199c7.378-4.19 15.601-6.315 23.824-6.315 8.223 0 16.446 2.126 23.824 6.315l392.374 224.199v-466.063h-832.396z"  horiz-adv-x="1025" />

    
    <glyph glyph-name="atm" unicode="&#58886;" d="M512.202-128c-282.422 0-512.199 214.896-512.199 479.061 0 145.306 68.714 279.796 186.479 369.893-27.917 24.134-58.241 43.080-90.598 56.585-17.944 7.441-29.605 25.009-29.574 44.392 0.032 19.445 11.755 36.889 29.667 44.33 122.672 50.645 263.352 35.701 373.551-37.953 14.099 1.125 28.574 1.813 42.673 1.813 282.423 0 512.199-214.896 512.199-479.061s-229.776-479.060-512.198-479.060zM241.409 800.299c19.789-16.381 38.577-34.701 56.272-54.897 9.41-10.755 13.536-25.135 11.286-39.203-2.251-14.131-10.66-26.448-22.946-33.763-118.953-70.465-189.98-190.636-189.98-321.375 0-211.208 186.698-383.024 416.162-383.024s416.162 171.817 416.162 383.024-186.698 383.024-416.162 383.024c-16.788 0-34.201-1.188-50.364-3.002-11.974-1.188-24.072 1.876-33.794 9.004-55.084 40.579-119.235 62.399-186.635 60.211zM384.139 384.22c0-53.040 28.665-96.037 64.025-96.037s64.025 42.997 64.025 96.037c0 53.040-28.665 96.037-64.025 96.037-35.36 0-64.025-42.997-64.025-96.037zM640.239 384.22c-0-0-0-0-0-0 0-53.040 28.665-96.037 64.025-96.037 35.36 0 64.025 42.997 64.025 96.037 0 0 0 0 0 0 0 53.040-28.665 96.037-64.025 96.037-35.36 0-64.025-42.997-64.025-96.037z"  horiz-adv-x="1024" />

    
    <glyph glyph-name="calendar" unicode="&#58887;" d="M975.99 763.408h-84.562v84.593c0 26.499-21.499 48-47.999 48s-48-21.499-48-48v-84.593h-235.434v84.593c0 26.499-21.499 48-48 48s-47.999-21.499-47.999-48v-84.593h-235.402v84.593c0 26.499-21.499 48-48 48s-48-21.499-48-48v-84.593h-84.593c-26.499 0-48-21.499-48-48v-795.396c0-26.499 21.499-48 48-48h927.988c26.499 0 47.999 21.499 47.999 48v795.397c0.001 26.499-21.499 47.999-47.999 47.999zM927.991-31.988h-831.989v699.397h831.989v-699.397zM478.872 468.568h66.281c26.499 0 48 21.499 48 48s-21.499 48-48 48h-66.281c-26.499 0-48-21.499-48-48s21.5-48 48-48zM478.872 269.695h66.281c26.499 0 48 21.499 48 48s-21.499 48-48 48h-66.281c-26.499 0-48-21.499-48-48s21.5-48 48-48zM478.872 70.855h66.281c26.499 0 48 21.499 48 48s-21.499 48-48 48h-66.281c-26.499 0-48-21.499-48-48s21.5-48 48-48zM213.719 468.568h66.281c26.499 0 48 21.499 48 48s-21.499 48-48 48h-66.281c-26.499 0-48-21.499-48-48s21.5-48 48-48zM213.719 269.695h66.281c26.499 0 48 21.499 48 48s-21.499 48-48 48h-66.281c-26.499 0-48-21.499-48-48s21.5-48 48-48zM213.719 70.855h66.281c26.499 0 48 21.499 48 48s-21.499 48-48 48h-66.281c-26.499 0-48-21.499-48-48s21.5-48 48-48zM743.993 468.568h66.312c26.499 0 48 21.499 48 48s-21.499 48-48 48h-66.312c-26.499 0-47.999-21.499-47.999-48s21.499-48 47.999-48zM743.993 269.695h66.312c26.499 0 48 21.499 48 48s-21.499 48-48 48h-66.312c-26.499 0-47.999-21.499-47.999-48s21.499-48 47.999-48z"  horiz-adv-x="1024" />

    
    <glyph glyph-name="account" unicode="&#58888;" d="M680.049 469.398c48.199 45.082 78.797 108.735 78.797 179.789 0 136.062-110.719 246.813-246.844 246.813s-246.875-110.75-246.875-246.813c0-71.055 30.614-134.707 78.82-179.793-199.898-69.765-343.945-259.699-343.945-483.081v-66.312c0-26.5 21.5-48 48-48s48 21.5 48 48v66.312c0 229.375 186.625 416 416 416s416-186.625 416-416v-66.312c0-26.5 21.5-48 48-48s47.999 21.5 47.999 48v66.312c-0.001 223.386-144.052 413.32-343.955 483.085zM361.128 649.187c0 83.188 67.688 150.813 150.875 150.813s150.844-67.625 150.844-150.813-67.656-150.875-150.844-150.875-150.875 67.688-150.875 150.875z"  horiz-adv-x="1024" />

    
    <glyph glyph-name="success" unicode="&#58890;" d="M512.00307-128c-282.311999 0-512 229.686977-512 512S229.690047 896 512.00307 896 1024.00307 666.311999 1024.00307 384 794.31507-128 512.00307-128z m0 928.000064c-229.374854 0-416.000064-186.62521-416.000064-416.000064s186.62521-416.000064 416.000064-416.000064 416.000064 186.62521 416.000064 416.000064S741.377924 800.000064 512.00307 800.000064zM463.99645 160.006972a47.919635 47.919635 0 0 0-33.937531 14.062948L302.058663 302.069152c-18.749916 18.749916-18.749916 49.125147 0 67.875063s49.125147 18.749916 67.875063 0l85.687585-85.687585 191.875022 301.500935c14.187798 22.37464 43.81291 28.937417 66.249975 14.749619 22.37464-14.250222 28.999842-43.875335 14.74962-66.249974L504.495736 182.256762a47.87563 47.87563 0 0 0-35.250497-21.937667c-1.748914-0.187274-3.498852-0.312123-5.248789-0.312123z"  horiz-adv-x="1024" />

    
    <glyph glyph-name="warning" unicode="&#58891;" d="M1007.756059 120.994577L605.837042 764.028349c-20.264738 32.46126-55.290831 51.850577-93.568784 51.850577s-73.304046-19.389316-93.568784-51.850577L16.779433 120.994577c-21.265074-34.024733-22.391348-76.931672-2.939575-112.019198 19.389316-35.08855 56.416081-56.854304 96.508359-56.854305h803.839058c40.092278 0 77.119043 21.765754 96.508359 56.854305 19.451773 35.087526 18.326523 77.994465-2.939575 112.019198z m-81.058953-65.423201c-1.501016-2.752204-5.191099-7.380165-12.508807-7.380165H110.348217c-7.317708 0-11.007791 4.627962-12.508807 7.380165-1.501016 2.752204-3.502712 8.255587 0.375766 14.510503l401.920041 643.033772c3.627626 5.816693 9.19449 6.692114 12.134065 6.692115s8.506439-0.875422 12.134065-6.692115l401.920041-643.033772c3.87643-6.253892 1.874734-11.758299 0.373718-14.510503zM512.268258 271.918345c26.519654 0 48.03558 21.515926 48.03558 48.03558V501.773433c0 26.519654-21.515926 48.03558-48.03558 48.03558s-48.03558-21.515926-48.03558-48.03558v-181.820532c0-26.519654 21.515926-48.034556 48.03558-48.034556zM512.268258 159.825428m-64.047099 0a64.047099 64.047099 0 1 1 128.094198 0 64.047099 64.047099 0 1 1-128.094198 0Z"  horiz-adv-x="1024" />

    
    <glyph glyph-name="prompt" unicode="&#58892;" d="M512.00307 896c-282.313023 0-512-229.686977-512-512s229.686977-512 512-512S1024.00307 101.688001 1024.00307 384 794.31507 896 512.00307 896z m0-928.000064c-229.374854 0-416.000064 186.62521-416.000064 416.000064S282.628216 800.000064 512.00307 800.000064s416.000064-186.62521 416.000064-416.000064-186.62521-416.000064-416.000064-416.000064zM512.00307 501.679718c-26.499785 0-48.00048-21.499671-48.00048-48.00048v-309.687777c0-26.499785 21.499671-48.00048 48.00048-48.000479 26.499785 0 48.00048 21.499671 48.00048 47.999456v309.687777c-0.001023 26.501832-21.500695 48.001503-48.00048 48.001503zM512.00307 613.690047m-63.999616 0a63.999616 63.999616 0 1 1 127.999232 0 63.999616 63.999616 0 1 1-127.999232 0Z"  horiz-adv-x="1024" />

    
    <glyph glyph-name="error" unicode="&#58893;" d="M512.00307-128c-282.311999 0-512 229.686977-512 512S229.690047 896 512.00307 896 1024.00307 666.311999 1024.00307 384 794.31507-128 512.00307-128z m0 928.000064c-229.374854 0-416.000064-186.62521-416.000064-416.000064s186.62521-416.000064 416.000064-416.000064 416.000064 186.62521 416.000064 416.000064S741.377924 800.000064 512.00307 800.000064zM579.878133 384l126.062021 126.062021c18.749916 18.749916 18.749916 49.125147 0 67.875063-18.749916 18.749916-49.125147 18.749916-67.875063 0L512.00307 451.875063 385.940026 577.937084c-18.749916 18.749916-49.125147 18.749916-67.875063 0-18.749916-18.749916-18.749916-49.125147 0-67.875063l126.062021-126.062021-126.062021-126.062021c-18.749916-18.749916-18.749916-49.125147 0-67.875063 9.374958-9.374958 21.624521-14.062948 33.937531-14.062948s24.562574 4.687991 33.937532 14.062948l126.062021 126.062021L638.065091 190.062916c9.374958-9.374958 21.624521-14.062948 33.937531-14.062948s24.562574 4.687991 33.937532 14.062948c18.749916 18.749916 18.749916 49.125147 0 67.875063L579.878133 384z"  horiz-adv-x="1024" />

    
    <glyph glyph-name="favorites-filling" unicode="&#58894;" d="M798.746-126.805c-0.007-0-0.014-0-0.022-0-8.102 0-15.734 2.012-22.424 5.563l-264.3 137.997-264.559-138.123c-15.875-8.312-35.437-7-50.187 3.562s-22.25 28.562-19.437 46.437l49.937 317.308-213.371 209.185c-13 12.75-17.687 31.75-12 49.062 5.823 17.635 21.129 30.568 39.729 32.851l293.141 43.46 133.185 288.808c15.625 33.999 71.499 33.999 87.124 0l133.185-288.808 294.308-43.624c18.693-2.862 33.662-16.179 38.889-33.697 5.36-16.302 0.673-35.302-12.327-48.052l-213.371-209.184 49.937-317.308c2.812-17.875-4.687-35.874-19.437-46.437-7.779-5.624-17.507-8.996-28.024-9z"  horiz-adv-x="1024" />

    
    <glyph glyph-name="arrow-right" unicode="&#58905;" d="M224.064 846.129c20.656 17.708 51.778 15.332 69.489-5.323l513.385-423.824c15.848-18.479 15.848-45.688 0-64.167L293.554-71.01300000000003c-17.711-20.666-48.833-23.037-69.489-5.324-20.604 17.709-23.035 48.789-5.326 69.486l485.887 391.746L218.738 776.64c-7.992 9.298-11.871 20.688-11.871 32.046 0 13.894 5.84 27.685 17.197 37.443z"  horiz-adv-x="1024" />

    
    <glyph glyph-name="arrow-left" unicode="&#58909;" d="M827.824 808.686c0-11.358-3.879-22.748-11.871-32.045L330.067 384.896 815.953-6.850000000000023c17.709-20.696 15.278-51.776-5.326-69.486-20.656-17.712-51.778-15.341-69.489 5.324L227.753 352.81399999999996c-15.848 18.479-15.848 45.688 0 64.167L741.138 840.806c17.711 20.656 48.833 23.031 69.489 5.323 11.357-9.758 17.197-23.549 17.197-37.443z"  horiz-adv-x="1024" />

    
    <glyph glyph-name="arrow-up" unicode="&#58917;" d="M936.638 78.91499999999996c-11.358 0-22.748 3.879-32.046 11.871L512.848 576.673 121.101 90.78599999999994c-20.696-17.709-51.776-15.278-69.486 5.326-17.712 20.656-15.341 51.778 5.324 69.489l423.828 513.385c18.479 15.848 45.688 15.848 64.167 0l423.824-513.385c20.655-17.711 23.031-48.833 5.323-69.489-9.758-11.357-23.549-17.197-37.443-17.197z"  horiz-adv-x="1024" />

    
    <glyph glyph-name="arrow-down" unicode="&#58941;" d="M974.081 673.675c17.708-20.656 15.332-51.778-5.323-69.489L544.934 90.80100000000004c-18.479-15.848-45.688-15.848-64.167 0L56.939 604.1859999999999c-20.665 17.711-23.036 48.833-5.324 69.489 17.71 20.604 48.79 23.035 69.486 5.326l391.747-485.887 391.744 485.887c9.298 7.992 20.688 11.871 32.046 11.871 13.894 0 27.685-5.84 37.443-17.197z"  horiz-adv-x="1024" />

    
    <glyph glyph-name="add" unicode="&#58965;" d="M970.74 330.304H54.264C24.842 330.304 1 354.13 1 383.549c0 29.419 23.842 53.248 53.264 53.248H970.74c29.42 0 53.26-23.829 53.26-53.248s-23.84-53.245-53.26-53.245zM565.497 841.7909999999999v-916.476c0-29.422-23.825-53.264-53.243-53.264-29.42 0-53.249 23.842-53.249 53.264V841.7909999999999c0 29.42 23.829 53.26 53.249 53.26 29.418 0 53.243-23.84 53.243-53.26z"  horiz-adv-x="1024" />

    
    <glyph glyph-name="arrow-double-left" unicode="&#58969;" d="M1024 808.686c0-11.357-3.88-22.748-11.871-32.046L526.241 384.895l485.888-391.746c17.709-20.697 15.277-51.777-5.326-69.486-20.656-17.713-51.778-15.342-69.489 5.324L423.929 352.81399999999996c-15.848 18.479-15.848 45.688 0 64.167L937.313 840.806c17.711 20.655 48.833 23.031 69.489 5.323C1018.159 836.371 1024 822.58 1024 808.686zM611.957 808.688c0-11.357-3.879-22.748-11.871-32.046L114.199 384.896l485.887-391.745c17.709-20.697 15.278-51.777-5.325-69.486-20.656-17.713-51.778-15.342-69.489 5.324L11.887 352.81600000000003c-15.849 18.479-15.849 45.688 0 64.167L525.272 840.808c17.711 20.655 48.833 23.031 69.489 5.323 11.356-9.758 17.196-23.549 17.196-37.443z"  horiz-adv-x="1024" />

    
    <glyph glyph-name="arrow-double-right" unicode="&#58974;" d="M17.2 846.129c20.656 17.708 51.778 15.332 69.489-5.323l513.385-423.824c15.848-18.479 15.848-45.688 0-64.167L86.69-71.01300000000003c-17.711-20.666-48.833-23.037-69.489-5.324-20.604 17.709-23.035 48.789-5.326 69.486l485.887 391.746L11.874 776.64C3.883 785.938 0.004 797.328 0.004 808.686 0.003 822.58 5.843 836.371 17.2 846.129zM429.376 846.131c20.656 17.708 51.778 15.332 69.489-5.323l513.385-423.824c15.849-18.479 15.849-45.688 0-64.167L498.865-71.01099999999997c-17.711-20.666-48.833-23.037-69.489-5.324-20.604 17.709-23.034 48.789-5.325 69.486l485.887 391.745-485.888 391.746c-7.992 9.298-11.871 20.688-11.871 32.046 0 13.894 5.84 27.685 17.197 37.443z"  horiz-adv-x="1024" />

    
    <glyph glyph-name="close" unicode="&#58918;" d="M579.87 383.992l430.070 430.070c18.75 18.75 18.75 49.125 0 67.875s-49.125 18.75-67.875 0l-430.070-430.070-430.055 430.070c-18.75 18.75-49.125 18.75-67.875 0s-18.75-49.125 0-67.875l430.055-430.070-430.055-430.054c-18.75-18.75-18.75-49.125 0-67.875 9.375-9.375 21.656-14.063 33.938-14.063s24.563 4.688 33.938 14.063l430.055 430.055 430.040-430.055c9.375-9.375 21.656-14.063 33.938-14.063s24.563 4.688 33.938 14.063c18.75 18.75 18.75 49.125 0 67.875l-430.040 430.054z"  horiz-adv-x="1024" />

    
    <glyph glyph-name="search" unicode="&#58966;" d="M1011.652-54.011999999999944L725.986 232.029c56.988 70.097 91.285 159.354 91.285 256.541C817.271 713.249 634.524 896 409.841 896 185.165 896 2.409 713.249 2.409 488.57c0-224.681 182.755-407.431 407.431-407.431 97.186 0 186.444 34.298 256.541 91.289l285.67-286.045c8.233-8.228 18.989-12.346 29.799-12.346 10.813 0 21.57 4.118 29.802 12.346 16.464 16.464 16.464 43.141 0 59.605zM86.705 488.57c0 178.199 144.941 323.134 323.135 323.134 178.199 0 323.134-144.936 323.134-323.134S588.038 165.43499999999995 409.84 165.43499999999995c-178.193 0-323.135 144.936-323.135 323.135z"  horiz-adv-x="1024" />

    
    <glyph glyph-name="ascending" unicode="&#58910;" d="M750.794525 542.875168c-20.81262-16.437641-51.03119-12.812804-67.37468 8.062243L558.857281 709.31268v-789.312762c0-26.499581-21.500336-47.999918-47.999918-47.999918s-47.999918 21.500336-47.999918 47.999918V848.000031c0 20.468762 12.968359 38.656395 32.312419 45.37493a47.762492 47.762492 0 0 0 15.687499 2.624988c14.437943 0 28.468578-6.531255 37.718972-18.344211L758.85779 610.248824c16.405916-20.810573 12.780056-50.998441-8.063265-67.373656z"  horiz-adv-x="1024" />

    
    <glyph glyph-name="descending" unicode="&#58911;" d="M269.62971 225.123808c20.81262 16.437641 51.03119 12.812804 67.37468-8.062242l124.562564-158.375269V848.000082c0 26.499581 21.500336 47.999918 47.999918 47.999918s47.999918-21.500336 47.999918-47.999918v-928.000113c0-20.468762-12.968359-38.656395-32.31242-45.37493a47.762492 47.762492 0 0 0-15.687498-2.624988c-14.437943 0-28.468578 6.531255-37.718972 18.344211L261.566445 157.749129c-16.405916 20.81262-12.781079 51.000488 8.063265 67.374679z"  horiz-adv-x="1024" />

    
    <glyph glyph-name="clock" unicode="&#58913;" d="M512.00307 896c-282.311999 0-512-229.686977-512-512s229.686977-512 512-512S1024.00307 101.688001 1024.00307 384 794.31507 896 512.00307 896z m0-928.000064c-229.374854 0-416.000064 186.62521-416.000064 416.000064S282.628216 800.000064 512.00307 800.000064s416.000064-186.62521 416.000064-416.000064-186.62521-416.000064-416.000064-416.000064zM513.565734 384l98.656566 98.624842c18.749916 18.749916 18.749916 49.125147 0 67.875063s-49.125147 18.749916-67.875063 0L411.75314 417.937531a48.017877 48.017877 0 0 1-14.062949-33.937531 48.019923 48.019923 0 0 1 14.062949-33.937531l198.874772-198.874773c9.374958-9.374958 21.656245-14.062948 33.937532-14.062949s24.562574 4.687991 33.937531 14.062949c18.749916 18.749916 18.749916 49.125147 0 67.875062L513.565734 384z"  horiz-adv-x="1024" />

    
    <glyph glyph-name="cry" unicode="&#58973;" d="M512.00307 896c-282.311999 0-512-229.686977-512-512s229.686977-512 512-512S1024.00307 101.688001 1024.00307 384 794.31507 896 512.00307 896z m0-928.000064c-229.374854 0-416.000064 186.62521-416.000064 416.000064S282.628216 800.000064 512.00307 800.000064s416.000064-186.62521 416.000064-416.000064-186.62521-416.000064-416.000064-416.000064zM710.674195 516.55828m-63.999616 0a63.999616 63.999616 0 1 1 127.999232 0 63.999616 63.999616 0 1 1-127.999232 0ZM312.963537 516.55828m-63.999616 0a63.999616 63.999616 0 1 1 127.999232 0 63.999616 63.999616 0 1 1-127.999232 0ZM512.00307 328.500373c-86.687403 0-165.468363-44.187458-210.719087-118.187302-13.84395-22.593638-6.718327-52.156326 15.906011-65.968552 22.593638-13.781526 52.156326-6.750051 65.968552 15.906011 27.687901 45.249701 75.84393 72.249907 128.843501 72.249907s101.187324-27.062631 128.875224-72.40648c9.062834-14.812044 24.843996-22.969209 40.999707-22.96921 8.531713 0 17.187252 2.281059 24.999546 7.031475 22.625362 13.812226 29.749962 43.374914 15.937735 66.000275-45.280401 74.093993-124.093085 118.343875-210.811189 118.343876z"  horiz-adv-x="1024" />

    
    <glyph glyph-name="delete-filling" unicode="&#58915;" d="M512.00307 896c-282.769439 0-512-229.230561-512-512s229.230561-512 512-512S1024.00307 101.230561 1024.00307 384 794.772509 896 512.00307 896z m237.262876-658.769615c24.999546-24.999546 24.999546-65.499855 0-90.500425-12.500285-12.500285-28.874993-18.749916-45.2497-18.749915s-32.750439 6.249631-45.249701 18.749915L512.016374 293.480132l-146.750172-146.749149c-12.500285-12.500285-28.874993-18.749916-45.2497-18.749915s-32.750439 6.249631-45.249701 18.749915c-24.999546 24.999546-24.999546 65.499855 0 90.500425l146.750171 146.750172-146.751194 146.749148c-24.999546 24.999546-24.999546 65.499855 0 90.500424s65.499855 24.999546 90.500424 0l146.750172-146.750171 146.750171 146.750171c24.999546 24.999546 65.499855 24.999546 90.500425 0s24.999546-65.499855 0-90.500424L602.515775 383.980556l146.750171-146.750171z"  horiz-adv-x="1024" />

    
    <glyph glyph-name="download" unicode="&#58920;" d="M478.996 114.37900000000002a47.736 47.736 0 0 1 33.756-13.99c12.65 0 24.8 5.032 33.752 13.99l263.705 263.729c18.649 18.649 18.649 48.865 0 67.516-18.649 18.648-48.866 18.648-67.515 0l-182.2-182.23V848.258C560.494 874.615 539.11 896 512.752 896c-26.36 0-47.743-21.382-47.743-47.742v-584.869L282.774 445.624c-18.648 18.648-48.86 18.648-67.51 0-18.649-18.65-18.649-48.866 0-67.516l263.732-263.729zM931.621 269.275v-264.183c0-24.354-19.676-44.03-44.031-44.03H135.912c-24.354 0-44.03 19.676-44.03 44.03V269.275c0 24.356-19.676 44.031-44.03 44.031-24.354 0-44.031-19.675-44.031-44.031v-308.213c0-48.57 39.49-88.062 88.061-88.062h839.74c48.572 0 88.062 39.491 88.062 88.062V269.275c0 24.356-19.678 44.031-44.031 44.031-24.355 0-44.032-19.675-44.032-44.031z"  horiz-adv-x="1024" />

    
    <glyph glyph-name="filter" unicode="&#58919;" d="M644.560784-127.988743c-26.499467 0-47.999904 21.499413-47.999904 47.999904V405.224134a48.044931 48.044931 0 0 0 15.15571 34.999355l226.966224 212.84102c16.093092 15.093286 25.312389 36.343004 25.312389 58.374555V800.000192H160.003774v-88.592852c0-22.030528 9.187574-43.280246 25.249965-58.342831l227.841182-213.810126a48.043908 48.043908 0 0 0 15.15571-34.999355v-484.243867c0-26.499467-21.499413-47.999904-47.999904-47.999904-26.499467 0-47.999904 21.499413-47.999904 47.999904V383.474002L119.567398 583.064776C84.2549 616.189366 64.006012 662.970469 64.006012 711.40734V847.999073c0 26.499467 21.499413 47.999904 47.999904 47.999904h799.990214c26.499467 0 47.998881-21.499413 47.998881-47.999904v-136.561032c0-48.468595-20.280612-95.248674-55.655533-128.404988l-211.779813-198.589945v-464.431947c0-26.500491-21.499413-47.999904-47.998881-47.999904z"  horiz-adv-x="1024" />

    
    <glyph glyph-name="help" unicode="&#58995;" d="M512.00307 896c-282.311999 0-512-229.686977-512-512s229.686977-512 512-512S1024.00307 101.688001 1024.00307 384 794.31507 896 512.00307 896z m0-928.000064c-229.374854 0-416.000064 186.62521-416.000064 416.000064S282.628216 800.000064 512.00307 800.000064s416.000064-186.62521 416.000064-416.000064-186.62521-416.000064-416.000064-416.000064zM512.00307 687.999968c-97.062179 0-175.999712-78.969257-175.999712-175.999712 0-26.499785 21.499671-48.00048 48.00048-48.00048s48.00048 21.499671 48.000479 48.00048c0 44.125033 35.874743 79.999776 79.999776 79.999776s79.999776-35.874743 79.999777-79.999776c0-30.031384-16.561982-57.281289-43.280766-71.093515-53.031294-27.499603-84.718467-76.59405-84.718467-131.343558 0-26.499785 21.499671-47.999456 48.00048-47.999456s48.00048 21.499671 48.000479 47.999456c0 18.18707 12.311987 35.43777 32.875289 46.093969 58.687379 30.375232 95.124967 90.281427 95.124967 156.344127-0.00307 97.030455-78.940603 175.998689-176.002782 175.998689zM511.99079 159.988551m-63.999616 0a63.999616 63.999616 0 1 1 127.999232 0 63.999616 63.999616 0 1 1-127.999232 0Z"  horiz-adv-x="1024" />

    
    <glyph glyph-name="picture" unicode="&#58929;" d="M976.508103 829.949158H48.027389c-26.51351 0-48.025341-21.510807-48.025341-48.025341v-795.849681c0-2.063129 0.922521-3.822164 1.176444-5.815669 0.421841-3.368583 0.860064-6.58563 1.977123-9.790391 1.015694-2.91193 2.450158-5.432736 3.974722-8.059002 1.544019-2.67746 3.056298-5.221815 5.119427-7.585966 2.180876-2.497256 4.701681-4.4324 7.351497-6.433072 1.649479-1.250164 2.755275-2.970291 4.600316-4.025917 0.7116-0.410578 1.531732-0.230374 2.254596-0.597949 6.523173-3.345033 13.612555-5.667205 21.441182-5.690754 0.034812 0 0.062457-0.027645 0.09727-0.027645 0.004096 0 0.008191 0.004096 0.011262 0.004095 0.008191 0 0.011263-0.004096 0.019454-0.004095h928.480714c26.51351 0 48.024317 21.510807 48.024318 48.025341V781.92484c0.003072 26.51351-21.508759 48.024317-48.02227 48.024318z m-48.024317-96.049659v-536.227174L606.12885 423.301838c-11.099941 7.753884-24.981778 10.693458-38.050651 7.504056a47.937287 47.937287 0 0 1-31.203929-23.011823l-22.574624-39.52095-173.46358 121.375462c-11.130657 7.753884-24.919321 10.631001-38.05065 7.504056-13.16307-2.938551-24.481098-11.318028-31.203929-23.011823L96.05273 166.94655V733.899499h832.431056zM130.789064 34.100501l198.07164 346.67938 173.464604-121.375462c11.0682-7.691427 24.856864-10.56752 38.05065-7.504056a47.937287 47.937287 0 0 1 31.203929 23.011823l22.574624 39.520949 334.329275-233.988513v-46.344121H130.789064zM777.366503 582.947062m-66.3191 0a66.3191 66.3191 0 1 1 132.6382 0 66.3191 66.3191 0 1 1-132.6382 0Z"  horiz-adv-x="1024" />

    
    <glyph glyph-name="refresh" unicode="&#58999;" d="M974.914297 431.375028c-26.470236 0-47.946957-21.475698-47.946957-47.946957 0-229.119089-186.417113-415.536202-415.536202-415.536202S95.895958 154.310004 95.895958 383.429093 282.313071 798.965296 511.43216 798.965296c95.49525 0 185.960184-32.171125 259.370496-91.082352L639.277422 576.357711h319.643311V896.001022L838.937321 776.017609C747.164975 852.858472 632.558408 894.858187 511.43216 894.858187c-281.997207 0-511.429093-229.430864-511.429093-511.429094s229.430864-511.429093 511.429093-511.429093S1022.861253 101.430864 1022.861253 383.429093c0 26.470236-21.47672 47.945934-47.946956 47.945935z"  horiz-adv-x="1024" />

    
    <glyph glyph-name="select" unicode="&#58930;" d="M384.21604-64.21604a102.513446 102.513446 0 0 0-71.722143 29.264691L30.72987 241.245812C-9.664454 280.828195-10.320764 345.734334 29.292335 386.129681c39.675556 40.394324 104.520262 41.082375 144.883869 1.438559l199.723167-195.783256 467.291024 600.856864c34.704593 44.64652 99.111076 52.776169 143.789335 17.946662 44.64652-34.704593 52.713712-99.111076 17.977379-143.757595l-537.8572-691.526005c-17.946662-23.07428-44.865631-37.330859-74.005408-39.331531-2.313981-0.126962-4.596221-0.189419-6.878461-0.189419z"  horiz-adv-x="1024" />

    
    <glyph glyph-name="semi-select" unicode="&#58931;" d="M922.077335 281.57563200000004H102.459181c-56.590142 0-102.456109 45.83525-102.456109 102.424368s45.865967 102.425392 102.456109 102.425392h819.618154c56.590142 0 102.456109-45.83525 102.456109-102.425392s-45.865967-102.424368-102.456109-102.424368z"  horiz-adv-x="1024" />

    
    <glyph glyph-name="smile" unicode="&#58975;" d="M512.00307 896c-282.311999 0-512-229.686977-512-512s229.686977-512 512-512S1024.00307 101.688001 1024.00307 384 794.31507 896 512.00307 896z m0-928.000064c-229.374854 0-416.000064 186.62521-416.000064 416.000064S282.628216 800.000064 512.00307 800.000064s416.000064-186.62521 416.000064-416.000064-186.62521-416.000064-416.000064-416.000064zM710.674195 516.55828m-63.999616 0a63.999616 63.999616 0 1 1 127.999232 0 63.999616 63.999616 0 1 1-127.999232 0ZM312.963537 516.55828m-63.999616 0a63.999616 63.999616 0 1 1 127.999232 0 63.999616 63.999616 0 1 1-127.999232 0ZM706.877547 321.468899c-22.625362 13.749802-52.187026 6.687627-66.000276-15.937736-27.687901-45.343849-75.874631-72.40648-128.875224-72.40648s-101.156623 27.030907-128.843501 72.281631c-13.812226 22.625362-43.344213 29.719261-65.968552 15.906011s-29.749962-43.374914-15.906011-65.968552c45.249701-74.031568 124.031684-118.219026 210.719087-118.219026 86.719127 0 165.530788 44.249883 210.812212 118.343876 13.812226 22.625362 6.687627 52.18805-15.937735 66.000276z"  horiz-adv-x="1024" />

    
    <glyph glyph-name="sorting" unicode="&#58932;" d="M121.218406 225.120501c20.811762 16.436964 51.029087 12.812276 67.371902-8.06191L313.148762 58.689849V847.971104c0 26.498489 21.49945 47.997939 47.99794 47.99794s47.997939-21.49945 47.997939-47.99794v-927.961867c0-20.467919-12.967825-38.654802-32.311087-45.37306a47.760523 47.760523 0 0 0-15.686852-2.624879c-14.437348 0-28.467405 6.530986-37.717418 18.343455L113.156496 157.748599c-16.40524 20.811762-12.780553 50.998386 8.06191 67.371902zM647.166446 893.344165c19.249115 6.718258 40.810989 0.406268 53.40427-15.718576L910.843504 610.198996c16.40524-20.811762 12.780553-50.998386-8.06191-67.371903-20.811762-16.436964-51.029087-12.812276-67.371902 8.06191L710.851238 709.257745v-789.249531c0-26.498489-21.49945-47.997939-47.99794-47.99794s-47.997939 21.49945-47.997939 47.99794V847.971104c0 20.467919 12.967825 38.653778 32.311087 45.373061z"  horiz-adv-x="1024" />

    
    <glyph glyph-name="ashbin" unicode="&#58937;" d="M832 608c-26.5 0-48-21.5-48-48v-592h-64v592c0 26.5-21.5 48-48 48s-48-21.5-48-48v-592h-64v592c0 26.5-21.5 48-48 48s-48-21.5-48-48v-592h-64v592c0 26.5-21.5 48-48 48s-48-21.5-48-48v-592h-64v592c0 26.5-21.5 48-48 48s-48-21.5-48-48v-640c0-26.5 21.5-48 48-48h640c26.5 0 48 21.5 48 48v640c0 26.5-21.5 48-48 48zM928 752h-240v96c0 26.5-21.5 48-48 48h-256c-26.5 0-48-21.5-48-48v-96h-240c-26.5 0-48-21.5-48-48s21.5-48 48-48h832c26.5 0 48 21.5 48 48s-21.5 48-48 48zM432 800h160v-48h-160v48z"  horiz-adv-x="1024" />

    
    <glyph glyph-name="success-filling" unicode="&#58938;" d="M512 896C229.23 896 0 666.77 0 384s229.23-512 512-512 512 229.23 512 512S794.77 896 512 896z m278.043-359.34l-298.625-384a64.114 64.114 0 0 0-46.188-24.562c-1.438-0.062-2.875-0.125-4.312-0.125-16.688 0-32.812 6.562-44.812 18.312l-156.5 153.438c-25.25 24.75-25.625 65.25-0.875 90.5 24.688 25.188 65.312 25.688 90.5 0.875L434.48 287.91l254.562 327.375c21.75 27.812 61.875 33 89.812 11.188 27.876-21.688 32.939-61.875 11.189-89.813z"  horiz-adv-x="1024" />

    
    <glyph glyph-name="edit" unicode="&#58939;" d="M975.969501 699.416143h-58.064186l87.313272 87.309272-0.012 0.011999C1016.796225 798.319053 1023.968001 814.322552 1023.968001 832.002c0 35.346895-28.651105 63.998-63.998 63.998-17.722446 0-33.736946-7.218774-45.326584-18.854411L736.906972 699.416143H47.9985c-26.499172 0-47.9985-21.499328-47.9985-47.9985v-731.415143c0-26.499172 21.499328-47.9985 47.9985-47.9985h927.971001c26.499172 0 47.9985 21.499328 47.9985 47.9985V651.417643c0 26.499172-21.499328 47.9985-47.9985 47.9985z m-47.9985-731.415143H95.997V603.419143h544.904972L337.583451 300.115621l90.497171-90.497172 393.819694 393.799694H927.971001v-635.417143zM191.994 64.025999l191.994 95.997-95.997 95.997z"  horiz-adv-x="1024" />

    
    <glyph glyph-name="set" unicode="&#59011;" d="M976 528h-76.562l-11.688 28.156 54.125 54.125c18.75 18.75 18.75 49.125 0 67.875l-135.75 135.75c-18.75 18.75-49.125 18.75-67.875 0l-54.125-54.125L656 771.438V848c0 26.5-21.5 48-48 48H416c-26.5 0-48-21.5-48-48v-76.562l-28.188-11.656-54.125 54.125c-18.75 18.75-49.125 18.75-67.875 0l-135.75-135.75c-18.75-18.75-18.75-49.125 0-67.875l54.125-54.156L124.562 528H48c-26.5 0-48-21.5-48-48v-192c0-26.5 21.5-48 48-48h76.562l11.625-28.125-54.125-54.125c-18.75-18.75-18.75-49.125 0-67.875l135.75-135.812c9-9 21.188-14.062 33.938-14.062s24.938 5.062 33.938 14.062l54.125 54.125L368-3.438V-80c0-26.5 21.5-48 48-48h192c26.5 0 48 21.5 48 48v76.562l28.125 11.625 54.125-54.125c18-18 49.875-18 67.875 0l135.75 135.812c18.75 18.75 18.75 49.125 0 67.875l-54.125 54.125L899.438 240H976c26.5 0 48 21.5 48 48V480c0 26.5-21.5 48-48 48z m-48-192h-60.625c-19.375 0-36.875-11.688-44.312-29.625L786.812 219c-7.438-17.938-3.375-38.562 10.375-52.312l42.875-42.875-67.875-67.938-42.875 42.875c-13.75 13.75-34.375 17.75-52.312 10.438L589.625 73C571.688 65.562 560 48.062 560 28.625V-32h-96v60.625c0 19.438-11.688 36.938-29.625 44.375l-87.438 36.188C329 116.5 308.375 112.5 294.625 98.75l-42.875-42.875-67.875 67.938 42.875 42.875c13.75 13.75 17.812 34.375 10.438 52.312L201 306.375C193.562 324.312 176.062 336 156.625 336H96v96h60.625c19.438 0 36.938 11.688 44.375 29.625l36.188 87.406c7.375 17.938 3.312 38.594-10.438 52.312l-42.875 42.875 67.875 67.875 42.875-42.875c13.75-13.719 34.375-17.844 52.312-10.406l87.438 36.219C452.312 702.469 464 719.969 464 739.375V800h96v-60.625c0-19.406 11.688-36.906 29.625-44.344L677 658.812c17.938-7.438 38.562-3.312 52.312 10.406l42.875 42.875 67.875-67.875-42.875-42.875c-13.75-13.719-17.812-34.375-10.375-52.312l36.25-87.406C830.5 443.688 847.938 432 867.375 432H928v-96zM512 560c-97.062 0-176-78.938-176-176s78.938-176 176-176 176 78.938 176 176-78.938 176-176 176z m0-256c-44.125 0-80 35.875-80 80s35.875 80 80 80 80-35.875 80-80-35.875-80-80-80z"  horiz-adv-x="1024" />

    
    <glyph glyph-name="ellipsis" unicode="&#58964;" d="M896 384m-128 0a128 128 0 1 1 256 0 128 128 0 1 1-256 0ZM127.999 384m-128 0a128 128 0 1 1 256 0 128 128 0 1 1-256 0ZM512 384m-128 0a128 128 0 1 1 256 0 128 128 0 1 1-256 0Z"  horiz-adv-x="1024" />

    
    <glyph glyph-name="attachment" unicode="&#58981;" d="M956.762 709.347c-86.609 86.734-237.831 86.734-324.566 0l-412.799-412.8c-34.931-34.931-40.18-75.799-40.18-97.045 0-21.246 5.249-62.114 43.992-100.857 34.931-34.931 75.799-40.18 97.045-40.18 21.246 0 62.051 5.249 96.982 40.18l323.253 323.253c18.747 18.747 18.747 49.116 0 67.863s-49.116 18.747-67.863 0L349.374 166.509c-9.998-9.998-21.371-12.06-29.12-12.06-7.811 0-19.184 2.062-33.056 15.997-9.936 9.873-11.998 21.246-11.998 29.057s2.062 19.184 12.06 29.182l412.799 412.799c50.553 50.491 138.412 50.491 188.84 0 25.245-25.245 39.118-58.739 39.118-94.42 0-35.618-13.872-69.175-39.118-94.42L476.1 39.844c-85.984-85.922-225.834-85.922-315.567 3.812-85.922 85.922-85.922 225.771 0 311.693l451.23 451.23c18.747 18.747 18.747 49.116 0 67.863s-49.116 18.747-67.863 0L92.67 423.212C32.931 363.473 0 284.05 0 199.503s32.931-163.97 96.545-227.521c61.676-61.676 142.661-92.483 223.709-92.483 80.985 0 162.033 30.807 223.709 92.483l412.799 412.799C1000.129 428.148 1024 485.763 1024 547.064s-23.871 118.978-67.238 162.283z"  horiz-adv-x="1024" />

    
    <glyph glyph-name="switch" unicode="&#59059;" d="M867.053 272.98400000000004H153.007c-45.901 0-66.28-56.091-35.712-86.659L321.279-17.659999999999968c20.378-20.377 51.047-20.377 71.424 0 20.379 20.379 20.379 51.047 0 71.426L280.522 170.99099999999999h586.531c30.566 0 51.047 20.378 51.047 51.046s-20.481 50.947-51.047 50.947zM153.007 476.968h714.046c45.9 0 66.279 56.091 35.712 86.657L698.781 767.71c-20.378 20.379-51.046 20.379-71.425 0-20.379-20.378-20.379-51.046 0-71.424L744.682 578.96H153.007c-30.567 0-51.046-20.378-51.046-51.047 0.1-30.568 25.522-50.945 51.046-50.945z"  horiz-adv-x="1024" />

    


  </font>
</defs>
</svg>
